<?xml version="1.0" standalone="no"?>
<!DOCTYPE svg PUBLIC "-//W3C//DTD SVG 1.1//EN" "http://www.w3.org/Graphics/SVG/1.1/DTD/svg11.dtd" >
<svg xmlns="http://www.w3.org/2000/svg" xmlns:xlink="http://www.w3.org/1999/xlink" version="1.1">
<metadata>
Created by FontForge 20200314 at Mon Oct  5 09:52:20 2020
 By Robert Madole
Copyright (c) Font Awesome
</metadata>
<!-- Font Awesome Pro 5.15.1 by @fontawesome - https://fontawesome.com License - https://fontawesome.com/license (Commercial License) --><defs>
<font id="FontAwesome5Pro-Light" horiz-adv-x="512" >
  <font-face 
    font-family="Font Awesome 5 Pro Light"
    font-weight="300"
    font-stretch="normal"
    units-per-em="512"
    panose-1="2 0 3 3 0 0 0 0 0 0"
    ascent="448"
    descent="-64"
    bbox="-0.0996094 -64.0996 640.1 448.022"
    underline-thickness="25"
    underline-position="-50"
    unicode-range="U+0020-F8FF"
  />
    <missing-glyph />
    <glyph glyph-name="bolt" unicode="&#xf0e7;" horiz-adv-x="320" 
d="M296 288c18.5 0 30 -20.0996 20.7002 -36l-176 -304c-4.40039 -7.59961 -12.5 -12 -20.7998 -12c-15.3008 0 -26.9004 14.2998 -23.3008 29.5l46.1006 194.5h-118.7c-14.5 0 -25.7002 12.7998 -23.7998 27.2002l32 240c1.59961 11.8994 11.7998 20.7998 23.7998 20.7998
h144c15.7002 0 27.2002 -15 23.2002 -30.2002l-42.6006 -129.8h115.4zM140.3 11.0996l141.8 244.9h-145.699l13.7998 42l38.7002 118h-125.9l-29.9004 -223.9h150l-9.2998 -39.3994z" />
    <glyph glyph-name="sun" unicode="&#xf185;" 
d="M256 304.3c61.7998 0 112 -50.2998 112 -112.1s-50.2002 -112.101 -112 -112.101s-112 50.3008 -112 112.101s50.2002 112.1 112 112.1zM256 112.1c44.0996 0 80 35.9004 80 80.1006s-35.9004 80.0996 -80 80.0996s-80 -35.8994 -80 -80.0996
s35.9004 -80.1006 80 -80.1006zM512 192.2c0 -5.2998 -2.7002 -10.2998 -7.09961 -13.2998l-82.9004 -55.5l19.4004 -97.9004c1 -5.2002 -0.600586 -10.5996 -4.40039 -14.4004c-3.7002 -3.7998 -9 -5.59961 -14.4004 -4.39941l-97.7998 19.3994l-55.5 -83
c-3 -4.39941 -8 -7.09961 -13.2998 -7.09961s-10.2998 2.59961 -13.2998 7.09961l-55.5 83l-97.7998 -19.3994c-5.30078 -1.10059 -10.6006 0.599609 -14.4004 4.39941c-3.7998 3.7002 -5.40039 9.2002 -4.40039 14.4004l19.4004 97.9004l-82.9004 55.5
c-4.39941 3 -7.09961 8 -7.09961 13.2998s2.7002 10.2998 7.09961 13.2998l82.9004 55.5l-19.4004 98c-1 5.2002 0.600586 10.5996 4.40039 14.4004c3.7998 3.7998 9.09961 5.5 14.4004 4.39941l97.7998 -19.5l55.5 83c6 8.90039 20.5996 8.90039 26.5996 0l55.5 -83
l97.7998 19.4004c5.30078 1.09961 10.6006 -0.600586 14.4004 -4.40039c3.7998 -3.7002 5.40039 -9.2002 4.40039 -14.3994l-19.4004 -97.9004l82.9004 -55.5c4.39941 -3 7.09961 -8 7.09961 -13.2998zM395.3 144.1l71.9004 48l-71.9004 48.2002
c-5.39941 3.60059 -8 10.1006 -6.7998 16.4004l16.7998 84.8994l-84.7998 -16.7998c-6.5 -1.2998 -12.7998 1.40039 -16.4004 6.7998l-48.0996 72l-48.0996 -72c-3.60059 -5.39941 -9.90039 -8.09961 -16.4004 -6.7998l-84.7998 16.7998l16.7998 -84.8994
c1.2002 -6.2998 -1.40039 -12.7998 -6.7998 -16.4004l-71.9004 -48.2002l71.9004 -48.0996c5.39941 -3.59961 8 -10.0996 6.7998 -16.4004l-16.7998 -84.8994l84.7998 16.7998c1 0.200195 2.09961 0.299805 3.09961 0.299805c5.30078 0 10.3008 -2.59961 13.3008 -7.09961
l48.0996 -71.9004l48.0996 72c3.60059 5.40039 9.80078 8.2002 16.4004 6.7998l84.7998 -16.7998l-16.7998 84.9004c-1.2002 6.2998 1.40039 12.7998 6.7998 16.3994z" />
    <glyph glyph-name="snowflake" unicode="&#xf2dc;" horiz-adv-x="448" 
d="M388.1 114.5l56.2002 -32.7002c3.7998 -2.2002 5.10059 -7.09961 2.90039 -10.8994l-7.90039 -13.9004c-2.2002 -3.7998 -7 -5.09961 -10.7998 -2.90039l-55.9004 32.7002l14.1006 -53.2998c1.09961 -4.2998 -1.40039 -8.7002 -5.60059 -9.7998l-15.2998 -4.10059
c-4.2002 -1.09961 -8.59961 1.40039 -9.7002 5.7002l-22.2998 84.2002l-93.7998 54.7998v-109.6l60.9004 -61.7002c3.09961 -3.09961 3.09961 -8.2002 0 -11.2998l-11.2002 -11.2998c-3.10059 -3.10059 -8.10059 -3.10059 -11.2002 0l-38.5996 39v-65.4004
c0 -4.40039 -3.5 -8 -7.90039 -8h-15.7998c-4.40039 0 -7.90039 3.59961 -7.90039 8v65.4004l-38.5996 -39c-3.10059 -3.10059 -8.10059 -3.10059 -11.2002 0l-11.2002 11.2998c-3.09961 3.09961 -3.09961 8.2002 0 11.2998l61 61.7002v109.7l-93.7998 -54.8008
l-22.2998 -84.1992c-1.10059 -4.30078 -5.5 -6.80078 -9.7002 -5.7002l-15.2998 4.09961c-4.2002 1.10059 -6.7002 5.5 -5.60059 9.7998l14.1006 53.3008l-55.9004 -32.7002c-3.7998 -2.2002 -8.59961 -0.900391 -10.7998 2.89941l-7.90039 13.9004
c-2.19922 3.7998 -0.899414 8.7002 2.90039 10.9004l55.9004 32.5996l-52.7002 14.2998c-4.2002 1.10059 -6.7002 5.5 -5.60059 9.7998l4.10059 15.5c1.09961 4.30078 5.5 6.80078 9.7002 5.7002l83.1992 -22.5996l93.8008 54.7998l-93.8008 54.7998l-83.1992 -22.5996
c-4.2002 -1.10059 -8.60059 1.39941 -9.7002 5.7002l-4.10059 15.5c-1.09961 4.2998 1.40039 8.69922 5.60059 9.7998l52.5996 14.3994l-55.8994 32.7002c-3.80078 2.2002 -5.10059 7.10059 -2.90039 10.9004l7.90039 13.8994c2.19922 3.80078 7 5.10059 10.7998 2.90039
l55.8994 -32.7002l-14.0996 53.2998c-1.09961 4.30078 1.40039 8.7002 5.59961 9.80078l15.3008 4.09961c4.19922 1.09961 8.59961 -1.40039 9.69922 -5.7002l22.1006 -84.3994l93.7998 -54.8008v109.7l-60.9004 61.7002c-3.09961 3.09961 -3.09961 8.2002 0 11.2998
l11.2002 11.2998c3.10059 3.10059 8.10059 3.10059 11.2002 0l38.5996 -39v65.4004c0 4.40039 3.5 8 7.90039 8h15.7998c4.40039 0 7.90039 -3.59961 7.90039 -8v-65.4004l38.5996 39c3.10059 3.10059 8.10059 3.10059 11.2002 0l11.2002 -11.2998
c3.09961 -3.09961 3.09961 -8.2002 0 -11.2998l-61 -61.5996v-109.7l93.7998 54.7998l22.2998 84.2002c1.10059 4.2998 5.5 6.7998 9.7002 5.7002l15.2998 -4.10059c4.2002 -1.09961 6.7002 -5.5 5.60059 -9.7998l-14.1006 -53.2998l55.9004 32.7002
c3.7998 2.19922 8.59961 0.899414 10.7998 -2.90039l7.90039 -13.9004c2.19922 -3.7998 0.899414 -8.69922 -2.90039 -10.8994l-55.9004 -32.7002l52.7002 -14.2998c4.2002 -1.10059 6.7002 -5.5 5.60059 -9.7998l-4.10059 -15.5
c-1.09961 -4.30078 -5.5 -6.80078 -9.7002 -5.7002l-83.1992 22.5996l-93.8008 -54.7998l93.8008 -54.7998l83.1992 22.5996c4.2002 1.10059 8.60059 -1.39941 9.7002 -5.7002l4.10059 -15.5c1.09961 -4.2998 -1.40039 -8.69922 -5.60059 -9.7998z" />
    <glyph glyph-name="cloud-moon" unicode="&#xf6c3;" horiz-adv-x="640" 
d="M351.5 134.4c53.5 -1.5 96.5 -45.4004 96.5 -99.2002c0 -54.7002 -44.5 -99.2002 -99.2002 -99.2002h-249.6c-54.7002 0 -99.2002 44.5 -99.2998 99.0996c0 42 25.6992 78.4004 64 92.7002c1.69922 53.4004 45.5 96.2002 99.1992 96.2002
c24.9004 0 48.5 -9.5 66.8008 -26.2998c12.1992 6.7998 25.5996 10.2998 39.5 10.2998c42.5 0 77.5996 -32.2998 82.0996 -73.5996zM348.8 -32c37.1006 0 67.2998 30.2998 67.2998 67.2998s-30.0996 67.2002 -67.1992 67.2002c-3.80078 0 -7.40039 -0.599609 -11 -1.2002
l-21.2002 -3.59961l2.59961 21.2998c0.5 3.59961 0.700195 4.90039 0.700195 6.40039c0 27.8994 -22.7002 50.5996 -50.5996 50.5996c-11.4004 0 -22.4004 -4 -31.7002 -11.5l-12.4004 -10.0996l-10.0996 12.5c-13 16 -31.9004 25.1992 -52 25.1992
c-37.1006 0 -67.2002 -30.0996 -67.2002 -67.1992c0 -1.30078 0.200195 -2.60059 0.400391 -3.80078l2 -14.5996l-14 -5.90039c-30.9004 -6.89941 -52.4004 -33.7998 -52.4004 -65.3994c0 -37.1006 30.0996 -67.2002 67.2002 -67.2002h249.6zM637.6 160.8
c4.10059 -8.5 2.90039 -18.3994 -3.09961 -25.5996c-36.5996 -45.2002 -90.9004 -71.1006 -149 -71.1006c-3.2002 0 -6.2998 0.5 -9.40039 0.700195c-2.7998 11.6006 -6.7998 22.7998 -12.5 33.1006c7.10059 -1.2002 14.4004 -1.90039 21.9004 -1.90039
c41.5 0 80.7002 15.9004 110.3 44.2002c-2.59961 -0.100586 -5.2002 -0.200195 -7.7998 -0.200195c-84.5996 0 -153.5 69 -153.5 153.8c0 48 22.5 93 59.9004 121.9c-3 0.0996094 -5.90039 0.200195 -8.90039 0.200195c-88.0996 0 -159.8 -71.8008 -159.8 -160
c0 -11.7002 1.89941 -22.8008 4.5 -33.7002c-10.7998 6.7998 -22.7002 11.7002 -35.4004 14.5996c-0.700195 6.40039 -1.09961 12.7002 -1.09961 19.2002c0 105.9 86.0996 192 191.8 192c11.7998 0 23.5 -1.09961 35 -3.09961
c10.0996 -1.90039 17.7998 -9.60059 19.5 -19.8008c1.7002 -10.0996 -3 -20 -11.9004 -25.0996c-38 -21.7002 -61.5996 -62.2998 -61.5996 -106c0 -67.2002 54.5 -121.9 121.5 -121.9c7.7002 0 15.5 0.700195 23.2002 2.2002
c1.59961 0.299805 3.09961 0.400391 4.59961 0.400391c9.40039 0 17.7002 -5.2998 21.7998 -13.9004z" />
    <glyph glyph-name="cloud-sun" unicode="&#xf6c4;" horiz-adv-x="640" 
d="M543.7 143.7c53.7002 -3.90039 96.2998 -48.9004 96.2998 -103.7c0 -57.2998 -46.7002 -104 -104 -104h-304c-57.2998 0 -104 46.7002 -104 104c0 42.0996 25.7002 79.5996 64 95.5996v0.400391c0 66.2002 53.7998 120 120 120c37.5 0 72.2998 -17.7002 94.7998 -47.2002
c14.4004 9.90039 31.4004 15.2002 49.2002 15.2002c46 0 83.7998 -35.4004 87.7002 -80.2998zM536 -32c39.7002 0 72 32.2002 72 71.9004c0 39.6992 -32.2998 72 -72 72c-1.2998 0 -2.59961 -0.200195 -3.7998 -0.400391l-23.5 -2.40039l2.5 20
c0.5 3.80078 0.799805 5.30078 0.799805 6.90039c0 30.9004 -25.0996 56 -56 56c-15.5996 0 -30.2002 -6.40039 -41 -18.0996l-15.2002 -16.5l-10.5996 19.7998c-15.4004 28.8994 -45 46.7998 -77.2002 46.7998c-48.5 0 -88 -39.5 -88 -88c0 -2 0.299805 -4 0.599609 -6
l2 -17.2002l-13.2998 -3.59961c-31.3994 -8.5 -53.2998 -36.9004 -53.2998 -69.2002c0 -39.7002 32.2998 -72 72 -72h304zM92.5996 125l40.6006 8.09961c-10.5 -11.0996 -18.9004 -23.7998 -25.1006 -37.5996l-32.7998 -6.5
c-1 -0.200195 -2.09961 -0.299805 -3.09961 -0.299805c-4.2002 0 -8.2998 1.7002 -11.2998 4.7002c-3.80078 3.7998 -5.40039 9.19922 -4.40039 14.3994l15.0996 76.2002l-64.5 43.2002c-4.39941 3 -7.09961 8 -7.09961 13.2998s2.7002 10.2998 7.09961 13.2998
l64.6006 43.1006l-15.1006 76.1992c-1 5.2002 0.600586 10.6006 4.40039 14.4004c3.7002 3.7998 9.09961 5.5 14.4004 4.40039l76.0996 -15.1006l43.2002 64.5c6 8.90039 20.5996 8.90039 26.5996 0l43.1006 -64.3994l76.1992 15.0996
c5.2002 1.09961 10.6006 -0.599609 14.4004 -4.40039c3.7998 -3.7998 5.40039 -9.19922 4.40039 -14.3994l-17.2002 -86.7002c-0.100586 -0.599609 -0.400391 -1 -0.600586 -1.5c-9.59961 1.90039 -19.5 3 -29.5996 3c-0.400391 0 -0.700195 -0.0996094 -1.09961 -0.0996094
c-0.100586 1.59961 -0.300781 3.19922 0 4.7998l12.5 63.2002l-63.2002 -12.5c-6.5 -1.30078 -12.7998 1.5 -16.4004 6.7998l-35.7998 53.5l-35.7998 -53.5c-3.60059 -5.2998 -10 -8.10059 -16.4004 -6.7998l-63.2002 12.5l12.5 -63.3008
c1.2002 -6.2998 -1.39941 -12.7998 -6.7998 -16.3994l-53.5 -35.7998l53.5 -35.8008c5.40039 -3.59961 8 -10.0996 6.7998 -16.3994zM208 298.3c-31.9004 0 -57.7998 -26 -57.7998 -57.7998c0 -18.5 8.7998 -34.7998 22.3994 -45.4004
c-4.2998 -10.1992 -7.59961 -20.7998 -9.59961 -31.8994c-26.7002 15.5996 -44.7998 44.2998 -44.7998 77.2998c0 49.5 40.2998 89.7998 89.7998 89.7998c33.0996 0 61.7002 -18.2002 77.2998 -44.7998c-11.0996 -2 -21.7002 -5.2998 -31.8994 -9.59961
c-10.6006 13.5 -26.9004 22.3994 -45.4004 22.3994z" />
    <glyph glyph-name="wind" unicode="&#xf72e;" 
d="M8 224c-4.40039 0 -8 3.59961 -8 8v16c0 4.40039 3.59961 8 8 8h344c40.2002 0 71.9004 37.2998 62.2998 79.0996c-5.39941 23.1006 -24.0996 41.9004 -47.2002 47.2002c-39.1992 9 -74.3994 -18.2002 -78.6992 -54.7998
c-0.5 -4.09961 -3.7002 -7.40039 -7.90039 -7.40039h-16.2002c-4.5 0 -8.39941 3.80078 -8 8.40039c4.7998 55.5996 57.2002 97.7002 116.3 85.4004c36.3008 -7.60059 65.6006 -36.9004 73.2002 -73.2002c13 -62.1006 -34 -116.7 -93.7998 -116.7h-344zM156 192
c52.5 0 98.4004 -40.5 100 -93.2002c1.59961 -54.2998 -42 -98.8994 -96 -98.8994c-50.0996 0 -91.2998 38.5 -95.5996 87.5996c-0.400391 4.5 3.39941 8.40039 8 8.40039h16c4.19922 0 7.39941 -3.2002 7.89941 -7.40039c3.7002 -31.7002 30.7998 -56.5 63.6006 -56.5
c37.3994 0 67.3994 32.2998 63.6992 70.4004c-3.19922 33.1992 -33.0996 57.5996 -66.5 57.5996h-149.1c-4.40039 0 -8 3.59961 -8 8v16c0 4.40039 3.59961 8 8 8h148zM395.3 192c61.2998 0 114.8 -47.2998 116.7 -108.6c1.90039 -63.4004 -49 -115.4 -112 -115.4
c-53 0 -97.0996 37 -108.6 86.5c-1.10059 4.90039 2.89941 9.5 7.89941 9.5h16.1006c3.69922 0 6.69922 -2.5 7.69922 -6c9.60059 -33.5 40.4004 -58 76.9004 -58c46.7002 0 84.2998 40.2998 79.5996 88c-4.09961 41.5996 -41.3994 72 -83.1992 72h-126.2
c-7 12.0996 -15.9004 22.7998 -26.4004 32h151.5z" />
    <glyph glyph-name="ballot" unicode="&#xf732;" horiz-adv-x="448" 
d="M144 368c17.7002 0 32 -14.4004 32 -32v-32c0 -17.5996 -14.2998 -32 -32 -32h-32c-17.7002 0 -32 14.4004 -32 32v32c0 17.5996 14.2998 32 32 32h32zM144 304v32h-32v-32h32zM416 448c17.7002 0 32 -14.4004 32 -32v-448c0 -17.5996 -14.2998 -32 -32 -32h-384
c-17.7002 0 -32 14.4004 -32 32v448c0 17.5996 14.2998 32 32 32h384zM416 -32v448h-384v-448h384zM344 208c4.40039 0 8 -3.59961 8 -8v-16c0 -4.40039 -3.59961 -8 -8 -8h-128c-4.40039 0 -8 3.59961 -8 8v16c0 4.40039 3.59961 8 8 8h128zM144 112
c17.7002 0 32 -14.4004 32 -32v-32c0 -17.5996 -14.2998 -32 -32 -32h-32c-17.7002 0 -32 14.4004 -32 32v32c0 17.5996 14.2998 32 32 32h32zM144 48v32h-32v-32h32zM344 80c4.40039 0 8 -3.59961 8 -8v-16c0 -4.40039 -3.59961 -8 -8 -8h-128c-4.40039 0 -8 3.59961 -8 8
v16c0 4.40039 3.59961 8 8 8h128zM344 336c4.40039 0 8 -3.59961 8 -8v-16c0 -4.40039 -3.59961 -8 -8 -8h-128c-4.40039 0 -8 3.59961 -8 8v16c0 4.40039 3.59961 8 8 8h128zM144 240c17.7002 0 32 -14.4004 32 -32v-32c0 -17.5996 -14.2998 -32 -32 -32h-32
c-17.7002 0 -32 14.4004 -32 32v32c0 17.5996 14.2998 32 32 32h32zM144 176v32h-32v-32h32z" />
    <glyph glyph-name="ballot-check" unicode="&#xf733;" horiz-adv-x="448" 
d="M112 16c-17.7002 0 -32 14.4004 -32 32v32c0 17.5996 14.2998 32 32 32h32c17.7002 0 32 -14.4004 32 -32v-32c0 -17.5996 -14.2998 -32 -32 -32h-32zM112 80v-32h32v32h-32zM112 272c-17.7002 0 -32 14.4004 -32 32v32c0 17.5996 14.2998 32 32 32h32
c17.7002 0 32 -14.4004 32 -32v-32c0 -17.5996 -14.2998 -32 -32 -32h-32zM112 336v-32h32v32h-32zM416 448c17.7002 0 32 -14.4004 32 -32v-448c0 -17.5996 -14.2998 -32 -32 -32h-384c-17.7002 0 -32 14.4004 -32 32v448c0 17.5996 14.2998 32 32 32h384zM416 -32v448
h-384v-448h384zM216 304c-4.40039 0 -8 3.59961 -8 8v16c0 4.40039 3.59961 8 8 8h128c4.40039 0 8 -3.59961 8 -8v-16c0 -4.40039 -3.59961 -8 -8 -8h-128zM216 176c-4.40039 0 -8 3.59961 -8 8v16c0 4.40039 3.59961 8 8 8h128c4.40039 0 8 -3.59961 8 -8v-16
c0 -4.40039 -3.59961 -8 -8 -8h-128zM216 48c-4.40039 0 -8 3.59961 -8 8v16c0 4.40039 3.59961 8 8 8h128c4.40039 0 8 -3.59961 8 -8v-16c0 -4.40039 -3.59961 -8 -8 -8h-128zM118.6 161.6l-36.8994 37.4004c-2.10059 2.09961 -2.10059 5.5 0 7.59961l12.7002 12.6006
c2.09961 2.09961 5.5 2.09961 7.59961 0l20.5996 -20.9004l47.6006 47.2002c2.09961 2.09961 5.5 2.09961 7.59961 0l12.6006 -12.7002c2.09961 -2.09961 2.09961 -5.5 0 -7.59961l-64.2002 -63.6006c-2.10059 -2.09961 -5.5 -2.09961 -7.60059 0z" />
    <glyph glyph-name="booth-curtain" unicode="&#xf734;" 
d="M0 416c0 17.7002 14.2998 32 32 32h448c17.7002 0 32 -14.2998 32 -32v-472c0 -4.40039 -3.59961 -8 -8 -8h-16c-4.40039 0 -8 3.59961 -8 8v64.9004c-9.5 -5.5 -20.2998 -8.90039 -32 -8.90039c-19.2002 0 -36.2998 8.7002 -48 22.0996
c-11.7002 -13.3994 -28.7998 -22.0996 -48 -22.0996s-36.2998 8.7002 -48 22.0996c-11.7002 -13.3994 -28.7998 -22.0996 -48 -22.0996s-36.2998 8.7002 -48 22.0996c-11.7002 -13.3994 -28.7998 -22.0996 -48 -22.0996c-35.2998 0 -64 28.7002 -64 64v352h-64v-472
c0 -4.40039 -3.59961 -8 -8 -8h-16c-4.40039 0 -8 3.59961 -8 8v472zM416 416v-352c0 -17.7002 14.2998 -32 32 -32s32 14.2998 32 32v352h-64zM320 416v-352c0 -17.7002 14.2998 -32 32 -32s32 14.2998 32 32v352h-64zM224 416v-352c0 -17.7002 14.2998 -32 32 -32
s32 14.2998 32 32v352h-64zM128 416v-352c0 -17.7002 14.2998 -32 32 -32s32 14.2998 32 32v352h-64z" />
    <glyph glyph-name="box-ballot" unicode="&#xf735;" horiz-adv-x="576" 
d="M571.4 171.4c3 -7.5 4.59961 -15.6006 4.59961 -23.7002v-179.5c0.0996094 -17.7998 -14.2998 -32.2002 -32 -32.2002h-511.7c-17.7002 0 -32.0996 14.5 -32 32.2002l-0.299805 179.399c0 8.2002 1.5 16.4004 4.59961 24l51.6006 128.101
c4.7998 12.2002 16.5996 20.2998 29.7998 20.2998h42.0996v96c0 17.7002 14.3008 32 32 32h256c17.7002 0 32 -14.2998 32 -32v-96.0996h42.2002c13.2002 0 25 -8 29.7998 -20.3008zM160.2 416v-192h256v192h-256zM86 288l-51.5 -128h507l-51 127.8l-0.0996094 0.200195
h-42.2002v-64h23.7998c4.40039 0 8 -3.59961 8 -8v-16c0 -4.40039 -3.59961 -8 -8 -8h-368c-4.40039 0 -8 3.59961 -8 8v16c0 4.40039 3.59961 8 8 8h24.2002v64h-42.2002zM544 -32v160h-511.8l0.0996094 -159.8z" />
    <glyph glyph-name="clipboard-list-check" unicode="&#xf737;" horiz-adv-x="384" 
d="M336 384c26.5 0 48 -21.5 48 -48v-352c0 -26.5 -21.5 -48 -48 -48h-288c-26.5 0 -48 21.5 -48 48v352c0 26.5 21.5 48 48 48h88.5996c-0.399414 2.59961 -0.599609 5.2998 -0.599609 8c0 30.9004 25.0996 56 56 56s56 -25.0996 56 -56
c0 -2.7002 -0.200195 -5.40039 -0.599609 -8h88.5996zM192 416c-13.2998 0 -24 -10.7002 -24 -24s10.7002 -24 24 -24s24 10.7002 24 24s-10.7002 24 -24 24zM352 -16v352c0 8.7998 -7.2002 16 -16 16h-48v-20c0 -6.59961 -5.40039 -12 -12 -12h-168
c-6.59961 0 -12 5.40039 -12 12v20h-48c-8.7998 0 -16 -7.2002 -16 -16v-352c0 -8.7998 7.2002 -16 16 -16h288c8.7998 0 16 7.2002 16 16zM112 120c13.2998 0 24 -10.7002 24 -24s-10.7002 -24 -24 -24s-24 10.7002 -24 24s10.7002 24 24 24zM280 112
c4.40039 0 8 -3.59961 8 -8v-16c0 -4.40039 -3.59961 -8 -8 -8h-112c-4.40039 0 -8 3.59961 -8 8v16c0 4.40039 3.59961 8 8 8h112zM126.2 177.6c-2.10059 -2.09961 -5.5 -2.09961 -7.40039 0l-37.0996 37.4004c-2.10059 2.09961 -2.10059 5.5 0 7.59961l12.7002 12.6006
c2.09961 2.09961 5.5 2.09961 7.59961 0l20.5996 -20.9004l47.6006 47.2002c2.09961 2.09961 5.5 2.09961 7.59961 0l12.6006 -12.7002c2.09961 -2.09961 2.09961 -5.5 0 -7.59961zM280 208c4.40039 0 8 -3.59961 8 -8v-16c0 -4.40039 -3.59961 -8 -8 -8h-109.9l32.3008 32
h77.5996z" />
    <glyph glyph-name="cloud-drizzle" unicode="&#xf738;" 
d="M48 88c8.7998 0 16 -7.2002 16 -16v-40c0 -8.7998 -7.2002 -16 -16 -16s-16 7.2002 -16 16v40c0 8.7998 7.2002 16 16 16zM144 8c8.7998 0 16 -7.2002 16 -16v-40c0 -8.7998 -7.2002 -16 -16 -16s-16 7.2002 -16 16v40c0 8.7998 7.2002 16 16 16zM240 88
c8.7998 0 16 -7.2002 16 -16v-40c0 -8.7998 -7.2002 -16 -16 -16s-16 7.2002 -16 16v40c0 8.7998 7.2002 16 16 16zM336 8c8.7998 0 16 -7.2002 16 -16v-40c0 -8.7998 -7.2002 -16 -16 -16s-16 7.2002 -16 16v40c0 8.7998 7.2002 16 16 16zM432 88
c8.7998 0 16 -7.2002 16 -16v-40c0 -8.7998 -7.2002 -16 -16 -16s-16 7.2002 -16 16v40c0 8.7998 7.2002 16 16 16zM415.7 335.7c53.7002 -3.90039 96.2998 -48.9004 96.2998 -103.7c0 -57.2998 -46.7002 -104 -104 -104h-304c-57.2998 0 -104 46.7002 -104 104
c0 42.0996 25.7002 79.5996 64 95.5996v0.400391c0 66.2002 53.7998 120 120 120c37.5 0 72.2998 -17.7002 94.7998 -47.2002c14.4004 9.90039 31.4004 15.2002 49.2002 15.2002c45.9004 0 83.7998 -35.4004 87.7002 -80.2998zM408 160c39.7002 0 72 32.2002 72 71.9004
c0 39.6992 -32.2998 72 -72 72c-1.2998 0 -2.59961 -0.200195 -3.7998 -0.400391l-23.5 -2.40039l2.5 20c0.5 3.80078 0.799805 5.30078 0.799805 6.90039c0 30.9004 -25.0996 56 -56 56c-15.5996 0 -30.0996 -6.40039 -41 -18.0996l-15.2002 -16.5l-10.5996 19.7998
c-15.4004 28.8994 -45 46.7998 -77.2002 46.7998c-48.5 0 -88 -39.5 -88 -88c0 -2 0.299805 -4 0.599609 -6l2 -17.2002l-13.2998 -3.59961c-31.3994 -8.5 -53.2998 -36.9004 -53.2998 -69.2002c0 -39.7002 32.2998 -72 72 -72h304z" />
    <glyph glyph-name="cloud-hail" unicode="&#xf739;" 
d="M376 80c13.2998 0 24 -10.7002 24 -24s-10.7002 -24 -24 -24s-24 10.7002 -24 24s10.7002 24 24 24zM184 -16c13.2998 0 24 -10.7002 24 -24s-10.7002 -24 -24 -24s-24 10.7002 -24 24s10.7002 24 24 24zM312 -16c13.2998 0 24 -10.7002 24 -24s-10.7002 -24 -24 -24
s-24 10.7002 -24 24s10.7002 24 24 24zM248 80c13.2998 0 24 -10.7002 24 -24s-10.7002 -24 -24 -24s-24 10.7002 -24 24s10.7002 24 24 24zM56 -16c13.2998 0 24 -10.7002 24 -24s-10.7002 -24 -24 -24s-24 10.7002 -24 24s10.7002 24 24 24zM120 80
c13.2998 0 24 -10.7002 24 -24s-10.7002 -24 -24 -24s-24 10.7002 -24 24s10.7002 24 24 24zM415.7 335.7c53.7002 -3.90039 96.2998 -48.9004 96.2998 -103.7c0 -57.2998 -46.7002 -104 -104 -104h-304c-57.2998 0 -104 46.7002 -104 104
c0 42.0996 25.7002 79.5996 64 95.5996v0.400391c0 66.2002 53.7998 120 120 120c37.5 0 72.2998 -17.7002 94.7998 -47.2002c14.4004 9.90039 31.4004 15.2002 49.2002 15.2002c45.9004 0 83.7998 -35.4004 87.7002 -80.2998zM408 160c39.7002 0 72 32.2002 72 71.9004
c0 39.6992 -32.2998 72 -72 72c-1.2998 0 -2.59961 -0.200195 -3.7998 -0.400391l-23.5 -2.40039l2.5 20c0.5 3.80078 0.799805 5.30078 0.799805 6.90039c0 30.9004 -25.0996 56 -56 56c-15.5996 0 -30.0996 -6.40039 -41 -18.0996l-15.2002 -16.5l-10.5996 19.7998
c-15.4004 28.8994 -45 46.7998 -77.2002 46.7998c-48.5 0 -88 -39.5 -88 -88c0 -2 0.299805 -4 0.599609 -6l2 -17.2002l-13.2998 -3.59961c-31.3994 -8.5 -53.2998 -36.9004 -53.2998 -69.2002c0 -39.7002 32.2998 -72 72 -72h304z" />
    <glyph glyph-name="cloud-hail-mixed" unicode="&#xf73a;" 
d="M415.7 335.7c53.7002 -3.90039 96.2998 -48.9004 96.2998 -103.7c0 -57.2998 -46.7002 -104 -104 -104h-304c-57.2998 0 -104 46.7002 -104 104c0 42.0996 25.7002 79.5996 64 95.5996v0.400391c0 66.2002 53.7998 120 120 120c37.5 0 72.2998 -17.7002 94.7998 -47.2002
c14.4004 9.90039 31.4004 15.2002 49.2002 15.2002c45.9004 0 83.7998 -35.4004 87.7002 -80.2998zM408 160c39.7002 0 72 32.2002 72 71.9004c0 39.6992 -32.2998 72 -72 72c-1.2998 0 -2.59961 -0.200195 -3.7998 -0.400391l-23.5 -2.40039l2.5 20
c0.5 3.80078 0.799805 5.30078 0.799805 6.90039c0 30.9004 -25.0996 56 -56 56c-15.5996 0 -30.0996 -6.40039 -41 -18.0996l-15.2002 -16.5l-10.5996 19.7998c-15.4004 28.8994 -45 46.7998 -77.2002 46.7998c-48.5 0 -88 -39.5 -88 -88c0 -2 0.299805 -4 0.599609 -6
l2 -17.2002l-13.2998 -3.59961c-31.3994 -8.5 -53.2998 -36.9004 -53.2998 -69.2002c0 -39.7002 32.2998 -72 72 -72h304zM183.9 77.9004c7.69922 -4.40039 10.3994 -14.2002 6 -21.8008l-64 -112c-3 -5.19922 -8.40039 -8.09961 -13.9004 -8.09961
c-2.7002 0 -5.40039 0.700195 -7.90039 2.09961c-7.69922 4.30078 -10.3994 14.1006 -6 21.8008l64 112c4.40039 7.7998 14.2002 10.3994 21.8008 6zM216 -16c13.2998 0 24 -10.7002 24 -24s-10.7002 -24 -24 -24s-24 10.7002 -24 24s10.7002 24 24 24zM87.2002 78.2998
c7.89941 -3.89941 11 -13.5 7.2002 -21.5996l-16 -32c-2.80078 -5.60059 -8.5 -8.7998 -14.3008 -8.7998c-2.39941 0 -4.89941 0.599609 -7.19922 1.69922c-8 4 -11.1006 13.6006 -7.2002 21.5l16 32c4 8 13.5996 11.1006 21.5 7.2002zM24 -16c13.2998 0 24 -10.7002 24 -24
s-10.7002 -24 -24 -24s-24 10.7002 -24 24s10.7002 24 24 24zM471.2 78.2998c7.89941 -3.89941 11 -13.5 7.2002 -21.5996l-16 -32c-2.80078 -5.60059 -8.5 -8.7998 -14.3008 -8.7998c-2.39941 0 -4.89941 0.599609 -7.19922 1.69922c-8 4 -11.1006 13.6006 -7.2002 21.5
l16 32c4 8 13.5996 11.1006 21.5 7.2002zM279.2 78.2998c7.89941 -3.89941 11 -13.5 7.2002 -21.5996l-16 -32c-2.80078 -5.60059 -8.5 -8.7998 -14.3008 -8.7998c-2.39941 0 -4.89941 0.599609 -7.19922 1.69922c-8 4 -11.1006 13.6006 -7.2002 21.5l16 32
c4 8 13.5996 11.1006 21.5 7.2002zM408 -16c13.2998 0 24 -10.7002 24 -24s-10.7002 -24 -24 -24s-24 10.7002 -24 24s10.7002 24 24 24zM375.9 77.9004c7.69922 -4.40039 10.3994 -14.2002 6 -21.8008l-64 -112c-3 -5.19922 -8.40039 -8.09961 -13.9004 -8.09961
c-2.7002 0 -5.40039 0.700195 -7.90039 2.09961c-7.69922 4.30078 -10.3994 14.1006 -6 21.8008l64 112c4.40039 7.7998 14.2002 10.3994 21.8008 6z" />
    <glyph glyph-name="cloud-meatball" unicode="&#xf73b;" 
d="M48 96c26.5 0 48 -21.5 48 -48s-21.5 -48 -48 -48s-48 21.5 -48 48s21.5 48 48 48zM48 32c8.7998 0 16 7.2002 16 16s-7.2002 16 -16 16s-16 -7.2002 -16 -16s7.2002 -16 16 -16zM464 96c26.5 0 48 -21.5 48 -48s-21.5 -48 -48 -48s-48 21.5 -48 48s21.5 48 48 48z
M464 32c8.7998 0 16 7.2002 16 16s-7.2002 16 -16 16s-16 -7.2002 -16 -16s7.2002 -16 16 -16zM346.5 154.5c12.2002 -12.2002 18 -29.2002 16.2998 -46.2998c13.2998 -10.9004 21.2002 -27 21.2002 -44.2002s-7.90039 -33.2998 -21.2002 -44.2002
c1.7002 -17.0996 -4.09961 -34.0996 -16.2998 -46.2998c-12.2998 -12.2998 -30.2998 -19 -46.5 -16.5996c-10.9004 -13.1006 -26.7998 -20.9004 -44 -20.9004s-33.0996 7.7998 -44 20.9004c-16 -2.40039 -34.2002 4.2998 -46.5 16.5996
c-12.2002 12.2002 -18 29.2002 -16.2998 46.2998c-13.2998 10.9004 -21.2002 27 -21.2002 44.2002s7.90039 33.2998 21.2002 44.2002c-1.7002 17.0996 4.09961 34.0996 16.2998 46.2998c12.2998 12.2002 29.4004 17.9004 46.2998 16.2998
c21.7002 26.6006 66.6006 26.6006 88.4004 0c17 1.60059 34.0996 -4.09961 46.2998 -16.2998zM337.7 41.2998c8.7998 4.60059 14.2998 13.2998 14.2998 22.7002s-5.5 18.0996 -14.2998 22.7002l-11.9004 6.2002l4.10059 12.7998c3 9.5 0.799805 19.5 -5.90039 26.2002
c-6.7002 6.69922 -16.7998 8.89941 -26.2002 5.89941l-12.7998 -4.09961l-6.2002 11.8994c-9.2002 17.7002 -36.2002 17.7002 -45.3994 0l-6.2002 -11.8994l-12.7998 4.09961c-9.5 3 -19.5 0.799805 -26.2002 -5.89941c-6.7002 -6.7002 -8.90039 -16.7002 -5.90039 -26.2002
l4.10059 -12.7998l-11.9004 -6.2002c-8.7998 -4.60059 -14.2998 -13.2998 -14.2998 -22.7002s5.5 -18.0996 14.2998 -22.7002l11.9004 -6.2002l-4.10059 -12.7998c-3 -9.5 -0.799805 -19.5 5.90039 -26.2002c4.89941 -4.89941 11.5 -7.59961 18.3994 -7.59961
c2 0 4.60059 0.700195 7.80078 1.7002l12.7998 4.09961l6.2002 -12c9.19922 -17.7002 36.1992 -17.7002 45.3994 0l6.2002 12l12.7998 -4.09961c3.2998 -1 5.7998 -1.7002 7.7998 -1.7002c7 0 13.5 2.7002 18.4004 7.59961c6.7002 6.7002 8.90039 16.7002 5.90039 26.2002
l-4.10059 12.7998zM512 232c0 -57.2998 -46.7002 -104 -104 -104.1h-14.2998c-1.7998 11.3994 -5.7002 22.1992 -11.6006 32h25.9004c39.7002 0 72 32.2998 72 72c0 39.6992 -32.2998 72 -72 72c-1.2998 0 -2.59961 -0.200195 -3.7998 -0.400391l-23.5 -2.40039l2.5 20
c0.5 3.80078 0.799805 5.30078 0.799805 6.90039c0 30.9004 -25.0996 56 -56 56c-15.5996 0 -30.0996 -6.40039 -41 -18.0996l-15.2002 -16.5l-10.5996 19.7998c-15.4004 28.8994 -45 46.7998 -77.2002 46.7998c-48.5 0 -88 -39.5 -88 -88c0 -2 0.299805 -4 0.599609 -6
l2 -17.2002l-13.2998 -3.59961c-31.3994 -8.5 -53.2998 -36.9004 -53.2998 -69.2002c0 -39.7002 32.2998 -72 72 -72h25.9004c-5.90039 -9.7998 -9.80078 -20.5996 -11.6006 -32h-14.2998c-57.2998 0 -104 46.7002 -104 104c0 42.0996 25.7002 79.5996 64 95.5996v0.400391
c0 66.2002 53.7998 120 120 120c37.5 0 72.2998 -17.7002 94.7998 -47.2002c14.4004 9.90039 31.4004 15.2002 49.2002 15.2002c45.9004 0 83.7998 -35.4004 87.7002 -80.2998c53.7002 -3.90039 96.2998 -48.9004 96.2998 -103.7z" />
    <glyph glyph-name="cloud-moon-rain" unicode="&#xf73c;" horiz-adv-x="576" 
d="M573.9 210.5c3.59961 -7.7002 2.5 -16.7002 -2.80078 -23.2002c-30.6992 -37.5996 -76.2998 -59.2002 -125 -59.2002c-0.699219 0 -1.39941 0.100586 -2.09961 0.100586c2.59961 10.2002 4.09961 20.8994 4.09961 31.8994v0.200195
c29.5 0.400391 57.5 10.6006 79.8008 28.7998c-70.6006 1.60059 -127.601 59.4004 -127.601 130.101c0 37.2002 16.2002 72.3994 43.5 96.7998c-52.5996 -0.900391 -97.3994 -33.2998 -116.5 -78.9004c-9 5.10059 -18.7998 8.90039 -29 11.4004
c24.1006 58.0996 80.6006 99.5 147.7 99.5c9.7998 0 19.7002 -0.900391 29.4004 -2.7998c9.2998 -1.7002 16.1992 -8.7002 17.7998 -18c1.5 -9.2002 -2.7002 -18.2002 -10.9004 -22.7998c-30.8994 -17.4004 -50.0996 -50.1006 -50.0996 -85.3008
c0 -54.1992 44.2998 -98.1992 98.7002 -98.1992c6.2998 0 12.5996 0.599609 18.8994 1.7998l2.7998 0.399414h1.40039c8.40039 0 16.2998 -4.89941 19.9004 -12.5996zM351.3 250.7c36.9004 -12.7002 62.7002 -47.1006 64.4004 -86.7002
c0 -1.40039 0.299805 -2.7002 0.299805 -4c0 -52.9004 -43.0996 -96 -96 -96h-224c-52.9004 0 -96 43.0996 -96 96c0 41.0996 26.2002 77.0996 64 90.4004c1.2998 56.2998 47.5 101.6 104 101.6c30.5996 0 59.0996 -13.2998 78.7998 -36.2998
c8.2002 2.89941 16.6006 4.2998 25.2002 4.2998c40.5 0 74 -30.2002 79.2998 -69.2998zM320 96c35.2998 0 64 28.7002 64.0996 64c0 30.4004 -21.5 56.7002 -51.2998 62.7002l-12.7998 2.59961l0.200195 16.2002c-0.100586 32.2002 -38.1006 58.2002 -70.7998 40.4004
l-13 -7.10059l-8.10059 12.4004c-13.3994 20.5996 -35.8994 32.7998 -60.2002 32.7998c-39.6992 0 -72 -32.2998 -72 -72c0 -1.5 0.200195 -2.90039 0.400391 -4.40039l2 -18l-14.5 -2.7998c-30.2002 -5.7998 -52 -32.2002 -52 -62.7998c0 -35.2998 28.7002 -64 64 -64h224z
M170.2 29.9004c7.7002 -4.40039 10.3994 -14.1006 6 -21.8008l-36.6006 -64c-3 -5.19922 -8.39941 -8.09961 -13.8994 -8.09961c-2.7002 0 -5.40039 0.700195 -7.90039 2.09961c-7.7002 4.40039 -10.3994 14.1006 -6 21.8008l36.6006 64
c4.39941 7.7998 14.1992 10.2998 21.7998 6zM74.2002 29.9004c7.7002 -4.40039 10.3994 -14.1006 6 -21.8008l-36.6006 -64c-3 -5.19922 -8.39941 -8.09961 -13.8994 -8.09961c-2.7002 0 -5.40039 0.700195 -7.90039 2.09961c-7.7002 4.40039 -10.3994 14.1006 -6 21.8008
l36.6006 64c4.39941 7.7998 14.1992 10.2998 21.7998 6zM266.2 29.9004c7.7002 -4.40039 10.3994 -14.1006 6 -21.8008l-36.6006 -64c-3 -5.19922 -8.39941 -8.09961 -13.8994 -8.09961c-2.7002 0 -5.40039 0.700195 -7.90039 2.09961
c-7.7002 4.40039 -10.3994 14.1006 -6 21.8008l36.6006 64c4.39941 7.7998 14.1992 10.2998 21.7998 6zM362.2 29.9004c7.7002 -4.40039 10.3994 -14.1006 6 -21.8008l-36.6006 -64c-3 -5.19922 -8.39941 -8.09961 -13.8994 -8.09961
c-2.7002 0 -5.40039 0.700195 -7.90039 2.09961c-7.7002 4.40039 -10.3994 14.1006 -6 21.8008l36.6006 64c4.39941 7.7998 14.1992 10.2998 21.7998 6z" />
    <glyph glyph-name="cloud-rain" unicode="&#xf73d;" 
d="M118.5 78.7998c4.7002 -16.2998 11.7998 -26.7998 18.7998 -37.0996c8.60059 -12.6006 17.4004 -25.6006 17.4004 -45.2002c0 -33.4004 -26.2998 -60.5 -58.7002 -60.5s-58.7002 27.0996 -58.7002 60.5c0 19.5 8.7998 32.5996 17.4004 45.2998
c7 10.2002 14.0996 20.7998 18.7998 37.1006c3 10.2998 11.0996 16.3994 22.7002 17.0996c10.5 -0.0996094 19.5 -7 22.2998 -17.2002zM96 -32c14.7002 0 26.7002 12.7998 26.5996 28.5c0 9.2998 -4.09961 15.7998 -11.8994 27.2998
c-4.60059 6.7998 -10 14.7002 -14.7998 24.6006c-4.80078 -9.90039 -10.1006 -17.8008 -14.7002 -24.6006c-7.7998 -11.5 -11.9004 -18 -11.9004 -27.2998c0 -15.7002 12 -28.5 26.7002 -28.5zM278.5 78.7998c4.7002 -16.2998 11.7998 -26.7998 18.7998 -37.0996
c8.60059 -12.6006 17.4004 -25.6006 17.4004 -45.2002c0 -33.4004 -26.2998 -60.5 -58.7002 -60.5s-58.7002 27.0996 -58.7002 60.5c0 19.5 8.7998 32.5996 17.4004 45.2998c7 10.2002 14.0996 20.7998 18.7998 37.1006c3 10.2998 12 17.0996 22.5 17.0996h0.200195
c10.5 -0.0996094 19.5 -7 22.2998 -17.2002zM256 -32c14.7002 0 26.7002 12.7998 26.5996 28.5c0 9.2998 -4.09961 15.7998 -11.8994 27.2998c-4.60059 6.7998 -10 14.7002 -14.7998 24.6006c-4.80078 -9.90039 -10.1006 -17.8008 -14.7002 -24.6006
c-7.7998 -11.5 -11.9004 -18 -11.9004 -27.2998c0 -15.7002 12 -28.5 26.7002 -28.5zM438.5 78.7998c4.7002 -16.2998 11.7998 -26.7998 18.7998 -37.0996c8.60059 -12.6006 17.4004 -25.6006 17.4004 -45.2002c0 -33.4004 -26.2998 -60.5 -58.7002 -60.5
s-58.7002 27.0996 -58.7002 60.5c0 19.5 8.7998 32.5996 17.4004 45.2998c7 10.2002 14.0996 20.7998 18.7998 37.1006c3 10.2998 12.2998 16.3994 22.7002 17.0996c10.5 -0.0996094 19.5 -7 22.2998 -17.2002zM416 -32c14.7002 0 26.7002 12.7998 26.5996 28.5
c0 9.2998 -4.09961 15.7998 -11.8994 27.2998c-4.60059 6.7998 -10 14.7002 -14.7998 24.6006c-4.80078 -9.90039 -10.1006 -17.8008 -14.7002 -24.6006c-7.7998 -11.5 -11.9004 -18 -11.9004 -27.2998c0 -15.7002 12 -28.5 26.7002 -28.5zM415.7 335.7
c53.7002 -3.90039 96.2998 -48.9004 96.2998 -103.7c0 -57.2998 -46.7002 -104 -104 -104h-304c-57.2998 0 -104 46.7002 -104 104c0 42.0996 25.7002 79.5996 64 95.5996v0.400391c0 66.2002 53.7998 120 120 120c37.5 0 72.2998 -17.7002 94.7998 -47.2002
c14.4004 9.90039 31.4004 15.2002 49.2002 15.2002c45.9004 0 83.7998 -35.4004 87.7002 -80.2998zM408 160c39.7002 0 72 32.2002 72 71.9004c0 39.6992 -32.2998 72 -72 72c-1.2998 0 -2.59961 -0.200195 -3.7998 -0.400391l-23.5 -2.40039l2.5 20
c0.5 3.80078 0.799805 5.30078 0.799805 6.90039c0 30.9004 -25.0996 56 -56 56c-15.5996 0 -30.0996 -6.40039 -41 -18.0996l-15.2002 -16.5l-10.5996 19.7998c-15.4004 28.8994 -45 46.7998 -77.2002 46.7998c-48.5 0 -88 -39.5 -88 -88c0 -2 0.299805 -4 0.599609 -6
l2 -17.2002l-13.2998 -3.59961c-31.3994 -8.5 -53.2998 -36.9004 -53.2998 -69.2002c0 -39.7002 32.2998 -72 72 -72h304z" />
    <glyph glyph-name="cloud-rainbow" unicode="&#xf73e;" horiz-adv-x="576" 
d="M568.2 416c-130 -2.7998 -245.4 -75.2002 -305.3 -190.5c5.69922 -5.09961 11.1992 -10.4004 15.8994 -16.5996c14.4004 9.89941 31.4004 15.1992 49.2002 15.1992c7.5 0 14.5996 -1.19922 21.5 -3c51.5 69.8008 131.1 112.301 218.2 114.801
c4.5 0.199219 8.2998 -3.60059 8.2998 -8.10059v-16c0 -4.2998 -3.5 -7.7998 -7.7998 -7.89941c-74.9004 -2.30078 -143.601 -37.9004 -189.2 -96.6006c20.2998 -14.5996 34.2998 -37.2998 36.5996 -63.5996c4.30078 -0.299805 8.30078 -1.2998 12.4004 -2.10059
c30.7998 48.5 83 79.4004 139.8 82.1006c4.5 0.200195 8.2998 -3.60059 8.2998 -8.10059v-16c0 -4.2998 -3.39941 -7.69922 -7.69922 -7.89941c-43.7002 -2.40039 -84.2002 -25.4004 -109.5 -61.5c31.5 -17.7998 53.0996 -51.4004 53.0996 -90.2002
c0 -57.2998 -46.7002 -104 -104 -104h-304c-57.2998 0 -104 46.7002 -104 104c0 42.0996 25.7002 79.5996 64 95.5996v0.400391c0 66.2002 53.7998 120 120 120c18.4004 0 36.0996 -4.40039 52.0996 -12.2002c65.8008 123.9 191.101 201.3 331.7 204.2
c4.5 0.0996094 8.2002 -3.59961 8.2002 -8.09961v-16c0 -4.40039 -3.5 -7.80078 -7.7998 -7.90039zM287 173.9l-15.2002 -16.6006l-10.5996 19.7998c-15.4004 28.9004 -45 46.8008 -77.2002 46.8008c-48.5 0 -88 -39.5 -88 -88c0 -2 0.299805 -4 0.599609 -6l2 -17.2002
l-13.2998 -3.60059c-31.3994 -8.5 -53.2998 -36.8994 -53.2998 -69.1992c0 -39.7002 32.2998 -72 72 -72h304c39.7002 0 72 32.2998 72 72c0 39.6992 -32.2998 72 -72 72c-1.2998 0 -2.59961 -0.200195 -3.7998 -0.400391l-23.5 -2.40039l2.5 20
c0.5 3.80078 0.799805 5.30078 0.799805 6.90039c0 30.9004 -25.0996 56 -56 56c-15.5996 0 -30.2002 -6.40039 -41 -18.0996z" />
    <glyph glyph-name="cloud-showers" unicode="&#xf73f;" 
d="M415.7 335.7c53.7002 -3.90039 96.2998 -48.9004 96.2998 -103.7c0 -57.2998 -46.7002 -104 -104 -104h-304c-57.2998 0 -104 46.7002 -104 104c0 42.0996 25.7002 79.5996 64 95.5996v0.400391c0 66.2002 53.7998 120 120 120c37.5 0 72.2998 -17.7002 94.7998 -47.2002
c14.4004 9.90039 31.4004 15.2002 49.2002 15.2002c45.9004 0 83.7998 -35.4004 87.7002 -80.2998zM408 160c39.7002 0 72 32.2002 72 71.9004c0 39.6992 -32.2998 72 -72 72c-1.2998 0 -2.59961 -0.200195 -3.7998 -0.400391l-23.5 -2.40039l2.5 20
c0.5 3.80078 0.799805 5.30078 0.799805 6.90039c0 30.9004 -25.0996 56 -56 56c-15.5996 0 -30.0996 -6.40039 -41 -18.0996l-15.2002 -16.5l-10.5996 19.7998c-15.4004 28.8994 -45 46.7998 -77.2002 46.7998c-48.5 0 -88 -39.5 -88 -88c0 -2 0.299805 -4 0.599609 -6
l2 -17.2002l-13.2998 -3.59961c-31.3994 -8.5 -53.2998 -36.9004 -53.2998 -69.2002c0 -39.7002 32.2998 -72 72 -72h304zM48 80c8.7998 0 16 -7.2002 16 -16v-80c0 -8.7998 -7.2002 -16 -16 -16s-16 7.2002 -16 16v80c0 8.7998 7.2002 16 16 16zM144 48
c8.7998 0 16 -7.2002 16 -16v-80c0 -8.7998 -7.2002 -16 -16 -16s-16 7.2002 -16 16v80c0 8.7998 7.2002 16 16 16zM240 80c8.7998 0 16 -7.2002 16 -16v-80c0 -8.7998 -7.2002 -16 -16 -16s-16 7.2002 -16 16v80c0 8.7998 7.2002 16 16 16zM336 48
c8.7998 0 16 -7.2002 16 -16v-80c0 -8.7998 -7.2002 -16 -16 -16s-16 7.2002 -16 16v80c0 8.7998 7.2002 16 16 16zM432 80c8.7998 0 16 -7.2002 16 -16v-80c0 -8.7998 -7.2002 -16 -16 -16s-16 7.2002 -16 16v80c0 8.7998 7.2002 16 16 16z" />
    <glyph glyph-name="cloud-showers-heavy" unicode="&#xf740;" 
d="M183.9 77.9004c7.69922 -4.40039 10.3994 -14.2002 6 -21.8008l-64 -112c-3 -5.19922 -8.40039 -8.09961 -13.9004 -8.09961c-2.7002 0 -5.40039 0.700195 -7.90039 2.09961c-7.69922 4.30078 -10.3994 14.1006 -6 21.8008l64 112
c4.40039 7.7998 14.2002 10.3994 21.8008 6zM279.9 77.9004c7.69922 -4.40039 10.3994 -14.2002 6 -21.8008l-64 -112c-3 -5.19922 -8.40039 -8.09961 -13.9004 -8.09961c-2.7002 0 -5.40039 0.700195 -7.90039 2.09961c-7.69922 4.30078 -10.3994 14.1006 -6 21.8008
l64 112c4.40039 7.7998 14.2002 10.3994 21.8008 6zM87.9004 77.9004c7.69922 -4.40039 10.3994 -14.2002 6 -21.8008l-64 -112c-3 -5.19922 -8.40039 -8.09961 -13.9004 -8.09961c-2.7002 0 -5.40039 0.700195 -7.90039 2.09961
c-7.69922 4.30078 -10.3994 14.1006 -6 21.8008l64 112c4.40039 7.7998 14.2002 10.3994 21.8008 6zM471.9 77.9004c7.69922 -4.40039 10.3994 -14.2002 6 -21.8008l-64 -112c-3 -5.19922 -8.40039 -8.09961 -13.9004 -8.09961
c-2.7002 0 -5.40039 0.700195 -7.90039 2.09961c-7.69922 4.30078 -10.3994 14.1006 -6 21.8008l64 112c4.40039 7.7998 14.2002 10.3994 21.8008 6zM375.9 77.9004c7.69922 -4.40039 10.3994 -14.2002 6 -21.8008l-64 -112
c-3 -5.19922 -8.40039 -8.09961 -13.9004 -8.09961c-2.7002 0 -5.40039 0.700195 -7.90039 2.09961c-7.69922 4.30078 -10.3994 14.1006 -6 21.8008l64 112c4.40039 7.7998 14.2002 10.3994 21.8008 6zM415.7 335.7c53.7002 -3.90039 96.2998 -48.9004 96.2998 -103.7
c0 -57.2998 -46.7002 -104 -104 -104h-304c-57.2998 0 -104 46.7002 -104 104c0 42.0996 25.7002 79.5996 64 95.5996v0.400391c0 66.2002 53.9004 120 120 120c37.5 0 72.2998 -17.7002 94.7998 -47.2002c14.4004 9.90039 31.4004 15.2002 49.2002 15.2002
c45.9004 0 83.7998 -35.4004 87.7002 -80.2998zM408 160c39.7002 0 72 32.2002 72 71.9004c0 39.6992 -32.2998 72 -72 72c-1.2998 0 -2.59961 -0.200195 -3.7998 -0.400391l-23.5 -2.40039l2.5 20c0.5 3.80078 0.799805 5.30078 0.799805 6.90039
c0 30.9004 -25.0996 56 -56 56c-15.5996 0 -30.0996 -6.40039 -41 -18.0996l-15.2002 -16.5l-10.5996 19.7998c-15.4004 28.8994 -45 46.7998 -77.2002 46.7998c-48.5 0 -88 -39.5 -88 -88c0 -2 0.299805 -4 0.599609 -6l2 -17.2002l-13.2998 -3.59961
c-31.3994 -8.5 -53.2998 -36.9004 -53.2998 -69.2002c0 -39.7002 32.2998 -72 72 -72h304z" />
    <glyph glyph-name="cloud-sleet" unicode="&#xf741;" 
d="M87.2002 94.2998c7.89941 -3.89941 11 -13.5 7.2002 -21.5996l-64 -128c-2.80078 -5.60059 -8.5 -8.7998 -14.3008 -8.7998c-2.39941 0 -4.89941 0.599609 -7.19922 1.69922c-8 4 -11.1006 13.6006 -7.2002 21.5l64 128c4 7.90039 13.5996 11.1006 21.5 7.2002z
M343.2 94.2998c7.89941 -3.89941 11 -13.5 7.2002 -21.5996l-64 -128c-2.80078 -5.60059 -8.5 -8.7998 -14.3008 -8.7998c-2.39941 0 -4.89941 0.599609 -7.19922 1.69922c-8 4 -11.1006 13.6006 -7.2002 21.5l64 128c4 7.90039 13.5996 11.1006 21.5 7.2002zM494.9 58.9004
c2.19922 -3.80078 0.899414 -8.7002 -2.90039 -10.9004l-27.9004 -16l27.9004 -16c3.7998 -2.2002 5.09961 -7.09961 2.90039 -10.9004l-8 -13.8994c-2.2002 -3.7998 -7.10059 -5.10059 -10.9004 -2.90039l-28 16.1006v-28.4004c0 -4.40039 -3.59961 -8 -8 -8h-16
c-4.40039 0 -8 3.59961 -8 8v28.4004l-28 -16.1006c-3.7998 -2.2002 -8.7002 -0.899414 -10.9004 2.90039l-8 13.8994c-2.19922 3.80078 -0.899414 8.7002 2.90039 10.9004l27.9004 16l-27.9004 16c-3.7998 2.2002 -5.09961 7.09961 -2.90039 10.9004l8 13.8994
c2.2002 3.7998 7.10059 5.10059 10.9004 2.90039l28 -16.1006v28.4004c0 4.40039 3.59961 8 8 8h16c4.40039 0 8 -3.59961 8 -8v-28.4004l28 16.1006c3.7998 2.2002 8.7002 0.899414 10.9004 -2.90039zM238.9 58.9004c2.19922 -3.80078 0.899414 -8.7002 -2.90039 -10.9004
l-27.9004 -16l27.9004 -16c3.7998 -2.2002 5.09961 -7.09961 2.90039 -10.9004l-8 -13.8994c-2.2002 -3.7998 -7.10059 -5.10059 -10.9004 -2.90039l-28 16.1006v-28.4004c0 -4.40039 -3.59961 -8 -8 -8h-16c-4.40039 0 -8 3.59961 -8 8v28.4004l-28 -16.1006
c-3.7998 -2.2002 -8.7002 -0.899414 -10.9004 2.90039l-8 13.8994c-2.19922 3.80078 -0.899414 8.7002 2.90039 10.9004l27.9004 16l-27.9004 16c-3.7998 2.2002 -5.09961 7.09961 -2.90039 10.9004l8 13.8994c2.2002 3.7998 7.10059 5.10059 10.9004 2.90039l28 -16.1006
v28.4004c0 4.40039 3.59961 8 8 8h16c4.40039 0 8 -3.59961 8 -8v-28.4004l28 16.1006c3.7998 2.2002 8.7002 0.899414 10.9004 -2.90039zM512 232c0 -57.2998 -46.7002 -104 -104 -104h-304c-57.2998 0 -104 46.7002 -104 104c0 42.0996 25.7002 79.5996 64 95.5996
v0.400391c0 66.2002 53.7998 120 120 120c37.5 0 72.2998 -17.7002 94.7998 -47.2002c14.4004 9.90039 31.4004 15.2002 49.2002 15.2002c45.9004 0 83.7998 -35.4004 87.7002 -80.2998c53.7002 -3.90039 96.2998 -48.9004 96.2998 -103.7zM32 232
c0 -39.7002 32.2998 -72 72 -72.0996h304c39.7002 0 72 32.2998 72 72c0 39.6992 -32.2998 72 -72 72c-1.2998 0 -2.59961 -0.200195 -3.7998 -0.400391l-23.5 -2.40039l2.5 20c0.5 3.80078 0.799805 5.30078 0.799805 6.90039c0 30.9004 -25.0996 56 -56 56
c-15.5996 0 -30.0996 -6.40039 -41 -18.0996l-15.2002 -16.5l-10.5996 19.7998c-15.4004 28.8994 -45 46.7998 -77.2002 46.7998c-48.5 0 -88 -39.5 -88 -88c0 -2 0.299805 -4 0.599609 -6l2 -17.2002l-13.2998 -3.59961c-31.3994 -8.5 -53.2998 -36.9004 -53.2998 -69.2002
z" />
    <glyph glyph-name="cloud-snow" unicode="&#xf742;" 
d="M126.9 58.9004c2.19922 -3.80078 0.899414 -8.7002 -2.90039 -10.9004l-27.9004 -16l27.9004 -16c3.7998 -2.2002 5.09961 -7.09961 2.90039 -10.9004l-8 -13.8994c-2.2002 -3.7998 -7.10059 -5.10059 -10.9004 -2.90039l-28 16.1006v-28.4004
c0 -4.40039 -3.59961 -8 -8 -8h-16c-4.40039 0 -8 3.59961 -8 8v28.4004l-28 -16.1006c-3.7998 -2.2002 -8.7002 -0.899414 -10.9004 2.90039l-8 13.8994c-2.19922 3.80078 -0.899414 8.7002 2.90039 10.9004l27.9004 16l-27.9004 16
c-3.7998 2.2002 -5.09961 7.09961 -2.90039 10.9004l8 13.8994c2.2002 3.7998 7.10059 5.10059 10.9004 2.90039l28 -16.1006v28.4004c0 4.40039 3.59961 8 8 8h16c4.40039 0 8 -3.59961 8 -8v-28.4004l28 16.1006c3.7998 2.2002 8.7002 0.899414 10.9004 -2.90039z
M510.9 58.9004c2.19922 -3.80078 0.899414 -8.7002 -2.90039 -10.9004l-27.9004 -16l27.9004 -16c3.7998 -2.2002 5.09961 -7.09961 2.90039 -10.9004l-8 -13.8994c-2.2002 -3.7998 -7.10059 -5.10059 -10.9004 -2.90039l-28 16.1006v-28.4004c0 -4.40039 -3.59961 -8 -8 -8
h-16c-4.40039 0 -8 3.59961 -8 8v28.4004l-28 -16.1006c-3.7998 -2.2002 -8.7002 -0.899414 -10.9004 2.90039l-8 13.8994c-2.19922 3.80078 -0.899414 8.7002 2.90039 10.9004l27.9004 16l-27.9004 16c-3.7998 2.2002 -5.09961 7.09961 -2.90039 10.9004l8 13.8994
c2.2002 3.7998 7.10059 5.10059 10.9004 2.90039l28 -16.1006v28.4004c0 4.40039 3.59961 8 8 8h16c4.40039 0 8 -3.59961 8 -8v-28.4004l28 16.1006c3.7998 2.2002 8.7002 0.899414 10.9004 -2.90039zM318.9 26.9004c2.19922 -3.80078 0.899414 -8.7002 -2.90039 -10.9004
l-27.9004 -16l27.9004 -16c3.7998 -2.2002 5.09961 -7.09961 2.90039 -10.9004l-8 -13.8994c-2.2002 -3.7998 -7.10059 -5.10059 -10.9004 -2.90039l-28 16.1006v-28.4004c0 -4.40039 -3.59961 -8 -8 -8h-16c-4.40039 0 -8 3.59961 -8 8v28.4004l-28 -16.1006
c-3.7998 -2.2002 -8.7002 -0.899414 -10.9004 2.90039l-8 13.8994c-2.19922 3.80078 -0.899414 8.7002 2.90039 10.9004l27.9004 16l-27.9004 16c-3.7998 2.2002 -5.09961 7.09961 -2.90039 10.9004l8 13.8994c2.2002 3.7998 7.10059 5.10059 10.9004 2.90039l28 -16.1006
v28.4004c0 4.40039 3.59961 8 8 8h16c4.40039 0 8 -3.59961 8 -8v-28.4004l28 16.1006c3.7998 2.2002 8.7002 0.899414 10.9004 -2.90039zM104 128c-57.2998 0 -104 46.7002 -104 104c0 42.0996 25.7002 79.5996 64 95.5996v0.400391c0 66.2002 53.7998 120 120 120
c37.5 0 72.2998 -17.7002 94.7998 -47.2002c14.4004 9.90039 31.4004 15.2002 49.2002 15.2002c45.9004 0 83.7002 -35.4004 87.7002 -80.2998c53.7002 -3.90039 96.2998 -48.9004 96.2998 -103.7c0 -57.2998 -46.7002 -104 -104 -104h-304zM85.2998 301.2
c-31.3994 -8.5 -53.2998 -36.9004 -53.2998 -69.2998c0 -39.7002 32.2998 -72 72 -72h304c39.7002 0 72 32.2998 72 72c0 39.6992 -32.2998 72 -72 72c-1.2998 0 -2.59961 -0.200195 -3.7998 -0.400391l-23.5 -2.40039l2.5 20
c0.5 3.80078 0.799805 5.30078 0.799805 6.90039c0 30.9004 -25.0996 56 -56 56c-15.5996 0 -30.0996 -6.40039 -41 -18.0996l-15.2002 -16.5l-10.5996 19.7998c-15.4004 28.8994 -45 46.7998 -77.2002 46.7998c-48.5 0 -88 -39.5 -88 -88c0 -2 0.299805 -4 0.599609 -6
l2 -17.2002z" />
    <glyph glyph-name="cloud-sun-rain" unicode="&#xf743;" horiz-adv-x="640" 
d="M298.2 29.9004c7.7002 -4.40039 10.3994 -14.1006 6 -21.8008l-36.6006 -64c-3 -5.19922 -8.39941 -8.09961 -13.8994 -8.09961c-2.7002 0 -5.40039 0.700195 -7.90039 2.09961c-7.7002 4.40039 -10.3994 14.1006 -6 21.8008l36.6006 64
c4.39941 7.7998 14.1992 10.2998 21.7998 6zM192 308c-28.5 0 -51.7002 -23.2998 -51.5996 -51.9004c0 -28.5 23.1992 -51.6992 51.6992 -51.6992c2.90039 0 5.7002 0.399414 8.5 0.899414c-4 -10.3994 -6.59961 -21.3994 -7.69922 -32.7998
c-0.300781 0 -0.600586 -0.0996094 -0.900391 -0.0996094c-46.2002 0 -83.7002 37.5996 -83.7002 83.7998s37.5 83.7998 83.7002 83.7998c31.5 0 58.7002 -17.7002 73 -43.4004c-2.90039 -7.7998 -5.2998 -15.8994 -6.7998 -24.2998
c-5.2998 -3 -10.2998 -6.2998 -15.1006 -9.89941c-3.09961 25.5996 -24.6992 45.5996 -51.0996 45.5996zM160.3 156.3l44.9004 -67.3994c4.89941 -7.30078 2.89941 -17.3008 -4.40039 -22.2002c-2.7002 -1.7998 -5.7998 -2.7002 -8.89941 -2.7002
c-5.10059 0 -10.2002 2.5 -13.3008 7.09961l-39.0996 58.5l-68.9004 -13.6992c-5.39941 -1.10059 -10.5996 0.599609 -14.3994 4.39941s-5.40039 9.2002 -4.40039 14.5l13.7002 69l-58.4004 39.1006c-4.39941 3 -7.09961 8 -7.09961 13.2998
c0 5.39941 2.7002 10.2998 7.09961 13.2998l58.4004 39.0996l-13.7002 69c-1 5.30078 0.600586 10.7002 4.40039 14.5c3.7002 3.80078 9.09961 5.5 14.3994 4.40039l69 -13.7002l39.1006 58.5c6 8.90039 20.7002 8.90039 26.5996 0l39.2002 -58.5l68.9004 13.6006
c8.5 1.89941 17.0996 -3.90039 18.7998 -12.6006s-3.90039 -17.0996 -12.6006 -18.7998l-79.3994 -15.7002c-6.40039 -1.2998 -12.7998 1.5 -16.4004 6.7998l-31.7998 47.5l-31.7002 -47.5c-3.59961 -5.39941 -9.89941 -8.09961 -16.3994 -6.7998l-56 11.1006l11.0996 -56
c1.2002 -6.30078 -1.40039 -12.8008 -6.7998 -16.4004l-47.4004 -31.7998l47.4004 -31.7998c5.39941 -3.60059 8 -10 6.7998 -16.4004l-11.0996 -56l56 11.0996c6.5 1.30078 12.7998 -1.5 16.3994 -6.7998zM490.2 29.9004c7.7002 -4.40039 10.3994 -14.1006 6 -21.8008
l-36.6006 -64c-3 -5.19922 -8.39941 -8.09961 -13.8994 -8.09961c-2.7002 0 -5.40039 0.700195 -7.90039 2.09961c-7.7002 4.40039 -10.3994 14.1006 -6 21.8008l36.6006 64c4.39941 7.7998 14.1992 10.2998 21.7998 6zM575.3 250.7
c38.1006 -13.1006 64.7002 -49.4004 64.7002 -90.7002c0 -52.9004 -43.0996 -96 -96 -96h-224c-52.9004 0 -96 43.0996 -96 96c0 41.0996 26.2002 77.0996 64 90.4004c1.2998 56.2998 47.5 101.6 104 101.6c30.5996 0 59.0996 -13.4004 78.7998 -36.2998
c8.2002 2.89941 16.6006 4.2998 25.2002 4.2998c40.5 0 74 -30.2002 79.2998 -69.2998zM544 96c35.2998 0 64 28.7002 64.0996 64c0 30.4004 -21.5 56.7002 -51.2998 62.7002l-12.7998 2.59961l0.200195 16.2002c-0.100586 32.2002 -38.1006 58.2002 -70.7998 40.4004
l-13 -7.10059l-8.10059 12.4004c-13.3994 20.5996 -35.8994 32.7998 -60.2002 32.7998c-39.6992 0 -72 -32.2998 -72 -72c0 -1.5 0.200195 -2.90039 0.400391 -4.40039l2 -18l-14.5 -2.7998c-30.2002 -5.7998 -52 -32.2002 -52 -62.7998c0 -35.2998 28.7002 -64 64 -64h224z
M586.2 29.9004c7.7002 -4.40039 10.3994 -14.1006 6 -21.8008l-36.6006 -64c-3 -5.19922 -8.39941 -8.09961 -13.8994 -8.09961c-2.7002 0 -5.40039 0.700195 -7.90039 2.09961c-7.7002 4.40039 -10.3994 14.1006 -6 21.8008l36.6006 64
c4.39941 7.7998 14.1992 10.2998 21.7998 6zM394.2 29.9004c7.7002 -4.40039 10.3994 -14.1006 6 -21.8008l-36.6006 -64c-3 -5.19922 -8.39941 -8.09961 -13.8994 -8.09961c-2.7002 0 -5.40039 0.700195 -7.90039 2.09961c-7.7002 4.40039 -10.3994 14.1006 -6 21.8008
l36.6006 64c4.39941 7.7998 14.1992 10.2998 21.7998 6z" />
    <glyph glyph-name="clouds" unicode="&#xf744;" horiz-adv-x="640" 
d="M543.7 143.7c53.7002 -3.90039 96.2998 -48.9004 96.2998 -103.7c0 -57.2998 -46.7002 -104 -104 -104h-304c-57.2998 0 -104 46.7002 -104 104c0 42.0996 25.7002 79.5996 64 95.5996v0.400391c0 8.2002 0.799805 16.2002 2.40039 24h-100.2
c-51.9004 0 -94.2002 42.2002 -94.2002 94.2002c0 42 27.5 78.2002 66.9004 90c11.2998 59.8994 63.2998 103.8 125.1 103.8c47.4004 0 91 -27 113 -68.5c10.0996 3 20.5 4.5 31 4.5c61.7998 0 112 -50.2002 112 -112c0 -18.2998 -4.7998 -35.4004 -12.7002 -50.7002
c6.7002 1.60059 13.6006 2.7002 20.7002 2.7002c46 0 83.7998 -35.4004 87.7002 -80.2998zM94.2002 192h112.3c20.2002 37.9004 59.7002 64 105.5 64c32.2998 0 62.0996 -13.7002 84.2998 -36.2002c12.2998 14.1006 19.7002 32.2998 19.7002 52.2002
c0 44.0996 -35.9004 80 -80 80c-11.2002 0 -22.2998 -2.5 -32.9004 -7.2998l-15.5 -7l-6 16c-14.0996 37.2998 -50.0996 62.2998 -89.5996 62.2998c-49.2002 0 -90 -37.2002 -95 -86.5996l-1.2002 -12.1006l-12 -2c-30 -5.09961 -51.7998 -30.7998 -51.7998 -61.0996
c0 -34.2998 27.9004 -62.2002 62.2002 -62.2002zM536 -32c39.7002 0 72 32.2002 72 71.9004c0 39.6992 -32.2998 72 -72 72c-1.2998 0 -2.59961 -0.200195 -3.7998 -0.400391l-23.5 -2.40039l2.5 20c0.5 3.80078 0.799805 5.30078 0.799805 6.90039
c0 30.9004 -25.0996 56 -56 56c-15.5996 0 -30.2002 -6.40039 -41 -18.0996l-15.2002 -16.5l-10.5996 19.7998c-15.4004 28.8994 -45 46.7998 -77.2002 46.7998c-48.5 0 -88 -39.5 -88 -88c0 -2 0.299805 -4 0.599609 -6l2 -17.2002l-13.2998 -3.59961
c-31.3994 -8.5 -53.2998 -36.9004 -53.2998 -69.2002c0 -39.7002 32.2998 -72 72 -72h304z" />
    <glyph glyph-name="clouds-moon" unicode="&#xf745;" horiz-adv-x="640" 
d="M462.6 126.9c46 -7.10059 81.4004 -46.9004 81.4004 -94.9004c0 -52.9004 -43.0996 -96 -96 -96h-240c-52.9004 0 -96 43.0996 -96 96c0 24.5 9.40039 46.9004 24.7998 64h-40.7998c-52.9004 0 -96 43.0996 -96 96s43.0996 96 96 96h5.5c13.2998 37.7998 49.5 64 90.5 64
s77.2002 -26.2002 90.5 -64h5.5c52.9004 0 96 -43.0996 96 -96c39 0 71.5996 -28.0996 78.5996 -65.0996zM96 128h80c0 52.9004 43.0996 96 96 96c30.9004 0 59.7998 -15.2002 77.5996 -39.9004c0.5 0.200195 1 0.300781 1.40039 0.5c0.299805 2.40039 1 4.80078 1 7.40039
c0 35.2998 -28.7002 64 -64 64h-30.7002l-2.59961 12.7998c-6 29.7002 -32.4004 51.2002 -62.7002 51.2002s-56.7002 -21.5 -62.7002 -51.2002l-2.59961 -12.7998h-30.7002c-35.2998 0 -64 -28.7002 -64 -64s28.7002 -64 64 -64zM448 -32
c35.2998 0 63.9004 28.5996 63.9004 63.9004c0 35.2998 -28.7002 64 -64 64h-16v16c0 26.5 -21.5 48 -48 48c-10.7002 0 -21 -3.7002 -29.8008 -10.7002l-15.7998 -12.7002l-8.59961 18.4004c-10.5 22.5 -33.1006 37 -57.7002 37c-35.2998 0 -64 -28.7002 -64 -64
c0 -4.30078 0.599609 -8.90039 1.7002 -13.9004l3.59961 -16.2998l-16.5 -2.90039c-30.5996 -5.39941 -52.7998 -31.7998 -52.7998 -62.7998c0 -35.2998 28.7002 -64 64 -64h240zM637.8 198.6c3.7998 -8.09961 2.7002 -17.5 -3.09961 -24.5
c-23.7002 -29 -55.9004 -48.8994 -91.6006 -57.3994c-9.7998 11.0996 -21.3994 20.5 -34.5 27.7002c31.6006 1.19922 61.6006 12.6992 85.1006 33.1992h-1c-74.7998 0 -135.7 60.6006 -135.7 135.101c0 40.0996 18 77.8994 48.4004 103.3h-1.90039
c-71.5996 0 -129.8 -54.7998 -135.8 -124.3c-9.2002 7.39941 -19.2998 13.5 -30.2002 18.0996c14.2002 78.4004 83 138.2 166 138.2c10.2998 0 20.7002 -0.900391 30.7998 -2.90039c9.7002 -1.7998 17.1006 -9.19922 18.7002 -18.8994
c1.7002 -9.7002 -2.7998 -19.1006 -11.4004 -23.9004c-32.5 -18.2998 -52.5996 -52.5996 -52.5996 -89.5996c0 -56.9004 46.5 -103.101 103.7 -103.101c6.59961 0 13.2002 0.700195 19.7998 1.90039l2.90039 0.400391h1.5c8.89941 0 17.0996 -5.2002 20.8994 -13.3008z" />
    <glyph glyph-name="clouds-sun" unicode="&#xf746;" horiz-adv-x="640" 
d="M640 189.7c0 -51.2998 -39.7998 -93 -88.7998 -93.5c15.3994 -17 24.7998 -39.4004 24.7998 -64.1006c0 -53 -43.0996 -96.0996 -96 -96.0996h-240c-52.9004 0 -96 43.0996 -96 96.0996c0 41.3008 26.2002 77.3008 64.2002 90.5
c-0.100586 1.90039 -0.200195 3.80078 -0.200195 5.60059c0 49.5996 38 90.0996 86.2998 95.0996c9.5 25.7998 29.4004 46.1006 54.7002 54.9004c15.2998 44.0996 55.0996 74.2002 101.5 74.2002c44.0996 0 82.7998 -28.5 99.4004 -69.2002h0.5
c49.3994 0 89.5996 -41.9004 89.5996 -93.5zM480 -32c35.2998 0 64 28.7002 64 64.0996c0 35.4004 -28.7002 64.1006 -64 64.1006h-16v16c0 26.5 -21.5 48 -48 48c-10.7002 0 -21 -3.7002 -29.7998 -10.7002l-15.7998 -12.7002l-8.60059 18.4004
c-10.5996 22.5 -33.2002 37 -57.7998 37c-35.2998 0 -64 -28.7998 -64 -64.1006c0 -4.2998 0.599609 -8.89941 1.7002 -13.8994l3.59961 -16.2998l-16.5 -2.90039c-30.5996 -5.40039 -52.7998 -31.9004 -52.7998 -62.9004c0 -35.3994 28.7002 -64.0996 64 -64.0996h240z
M550.4 128.2c31.7998 0 57.5996 27.5 57.5 61.5c0 34 -25.8008 61.5 -57.6006 61.5c-8.7002 0 -16.5996 -2.60059 -24 -6.2998c-3 42.1992 -35.5996 75.5 -75.8994 75.5c-38.3008 0 -69.7002 -30.1006 -75.3008 -69.4004c-20 -1 -37.0996 -12.7998 -46.6992 -30.0996
c21.1992 -5.7002 40.1992 -18.5 53.1992 -36.5c10.7002 5.19922 22.4004 7.89941 34.4004 7.89941c38.5996 0 70.7998 -27.5996 78.2998 -64.0996h56.1006zM165.5 135.9c-13.5996 -9.7002 -25.0996 -22 -33.9004 -36l-56.2998 -11.1006
c-5.2002 -1 -10.5996 0.700195 -14.3994 4.40039c-3.80078 3.7002 -5.40039 9.09961 -4.40039 14.3994l15.0996 76.2002l-64.5 43.2002c-4.39941 3 -7.09961 8 -7.09961 13.2998s2.7002 10.2998 7.09961 13.2998l64.5 43.2002l-15.0996 76.2998
c-1 5.2002 0.599609 10.6006 4.40039 14.4004c3.7998 3.7002 9.09961 5.5 14.3994 4.40039l76.2002 -15.2002l43.2002 64.5996c6 8.90039 20.5996 8.90039 26.5996 0l43.1006 -64.5996l76.1992 15.0996c5.40039 1.10059 10.6006 -0.599609 14.4004 -4.39941
c3.7998 -3.80078 5.40039 -9.2002 4.40039 -14.4004l-5.80078 -29.5c-11.7998 -11.7998 -22 -25.5 -29.2998 -41.2002c-4.59961 -2.2998 -8.7998 -5 -13 -7.7998l12.1006 61.2002l-63.2002 -12.5c-6.5 -1.2998 -12.7998 1.5 -16.4004 6.7998l-35.7998 53.5996
l-35.7998 -53.5c-3.60059 -5.2998 -9.90039 -8.09961 -16.4004 -6.7998l-63.2002 12.5l12.5 -63.2002c1.2002 -6.39941 -1.39941 -12.8994 -6.7998 -16.5l-53.5 -35.7998l53.5 -35.7998c5.40039 -3.7002 8 -10.2002 6.7998 -16.5l-12.5 -63.2002l63.2002 12.5
c1 0.200195 2.10059 0.299805 3.10059 0.299805c2.2998 0 4.5 -0.699219 6.59961 -1.69922zM208 298.2c-31.9004 0 -57.7998 -26 -57.9004 -57.9004c0 -25.5996 16.8008 -47.0996 39.8008 -54.7002c-4.7002 -9.5 -8.30078 -19.5 -10.6006 -30.0996
c-35.3994 12.0996 -61.0996 45.2998 -61.0996 84.7998c0 49.6006 40.2998 89.9004 89.7998 89.9004c36.7002 0 68.2998 -22.2002 82.2002 -53.9004c-6.7998 -7.39941 -13 -15.5 -18 -24.5c-2.5 -0.599609 -4.90039 -1.59961 -7.2998 -2.39941
c-4.40039 27.5996 -28.1006 48.7998 -56.9004 48.7998z" />
    <glyph glyph-name="democrat" unicode="&#xf747;" horiz-adv-x="640" 
d="M283.7 221.2l18.2002 -2.7002c3.2998 -0.5 4.59961 -4.5 2.19922 -6.7998l-13.1992 -12.9004l3.09961 -18.2002c0.599609 -3.2998 -2.90039 -5.69922 -5.7998 -4.19922l-16.2998 8.59961l-16.3008 -8.59961c-2.89941 -1.5 -6.39941 0.899414 -5.7998 4.19922
l3.10059 18.2002l-13.2002 12.9004c-2.40039 2.2998 -1.10059 6.2998 2.2002 6.7998l18.1992 2.7002l8.2002 16.5c1.5 3 5.7002 3 7.2002 0zM379.7 221.2l18.2002 -2.7002c3.2998 -0.5 4.59961 -4.5 2.19922 -6.7998l-13.1992 -12.9004l3.09961 -18.2002
c0.599609 -3.2998 -2.90039 -5.69922 -5.7998 -4.19922l-16.2998 8.59961l-16.3008 -8.59961c-2.89941 -1.5 -6.39941 0.899414 -5.7998 4.19922l3.10059 18.2002l-13.2002 12.9004c-2.40039 2.2998 -1.10059 6.2998 2.2002 6.7998l18.1992 2.7002l8.2002 16.5
c1.5 3 5.7002 3 7.2002 0zM638.7 221.8c2.39941 -3.7002 1.39941 -8.7002 -2.2998 -11.0996l-13.3008 -8.90039c-3.69922 -2.5 -8.69922 -1.5 -11.0996 2.2002l-15.2998 22.7998c-8.7002 13.1006 -20.2002 23.5 -33.2002 31.2998
c7.7002 -13.2998 12.4004 -28.5 12.4004 -44.8994v-230.5c0 -25.7998 -21 -46.7002 -46.7002 -46.7002h-49.2998c-25.8008 0 -46.7002 21 -46.7002 46.7002v49.2998h-113.3v-49.2998c0 -25.7998 -21 -46.7002 -46.7002 -46.7002h-50.6006
c-25.7998 0 -46.6992 21 -46.6992 46.7002v138.7l-27.2002 63.5l-14.6006 -12.2002c-9.2998 -8.2002 -21.2998 -12.7002 -34.0996 -12.7002h-34.4004c-18.6992 0 -35.5996 9.7002 -44.1992 25.5l-15.9004 29.0996c-8.7998 16.1006 -6.90039 35.7002 4.7998 50
l75.2002 91.9004c-10.7998 23.4004 -9.2998 51.5 5.5 73.9004c7.2998 11 19.5996 17.5996 32.7998 17.5996c10.6006 0 20.5 -4.09961 28 -11.5996l15.7998 -15.8008l14.9004 14.9004c7.7998 7.7002 18.0996 12 29.0996 12
c13.8008 -0.0996094 26.6006 -6.90039 34.2002 -18.4004c18.7002 -28.2998 18.5 -64.6992 1.2002 -92.6992l24.7998 -32.4004h213.4c31.0996 0 94.3994 6.2998 138.3 -59.4004zM544 -17.2998v129.3h-336v-129.3c0 -8.10059 6.59961 -14.7002 14.7002 -14.7002h50.5996
c8.10059 0 14.7002 6.59961 14.7002 14.7002v81.2998h177.3v-81.2998c0 -8.10059 6.60059 -14.7002 14.7002 -14.7002h49.2998c8.10059 0 14.7002 6.59961 14.7002 14.7002zM544 144h0.0996094v69.2002c0 32.5 -26.2998 58.7998 -58.7998 58.7998h-229.3l-50.5996 66.0996
c2.39941 1.60059 4.69922 3.40039 6.7998 5.5c18.3994 18.4004 20.7002 46.9004 6.89941 67.8008c-1.69922 2.59961 -4.59961 4 -7.5 4c-2.2998 0 -4.59961 -0.900391 -6.39941 -2.7002l-37.5 -37.5l-38.5 38.5c-1.5 1.5 -3.40039 2.2002 -5.2998 2.2002
c-2.40039 0 -4.80078 -1.10059 -6.2002 -3.30078c-11.2998 -17.0996 -9.5 -40.2998 5.59961 -55.3994c2.5 -2.40039 5.5 -3.7998 8.2998 -5.5c-5.5 -0.299805 -10.5996 -2.5 -13.6992 -6.2998l-82.9004 -101.2c-3.5 -4.2998 -4.09961 -9.7002 -1.5 -14.4004
l15.9004 -29.0996c2.89941 -5.2998 9.2998 -8.7002 16.1992 -8.7002h34.5c4.90039 0 9.7002 1.7998 13.1006 4.90039l48.0996 40.0996l39.7998 -93h342.9zM475.7 221.2l18.2002 -2.7002c3.2998 -0.5 4.59961 -4.5 2.19922 -6.7998l-13.1992 -12.9004l3.09961 -18.2002
c0.599609 -3.2998 -2.90039 -5.69922 -5.7998 -4.19922l-16.2998 8.59961l-16.3008 -8.59961c-2.89941 -1.5 -6.39941 0.899414 -5.7998 4.19922l3.10059 18.2002l-13.2002 12.9004c-2.40039 2.2998 -1.10059 6.2998 2.2002 6.7998l18.1992 2.7002l8.2002 16.5
c1.5 3 5.7002 3 7.2002 0z" />
    <glyph glyph-name="dewpoint" unicode="&#xf748;" horiz-adv-x="448" 
d="M176 448c12.5996 0 25.2002 -7.09961 29.2002 -20.7002c47 -148.5 146.8 -219.5 146.8 -324.3c0 -92.2998 -78.7002 -167 -176 -167s-176 74.7002 -176 167c0 104.2 100 176.4 146.8 324.3c4.5 13.9004 16.7998 20.7002 29.2002 20.7002zM320 103
c0 47.7002 -26.0996 89.2002 -59.0996 141.8c-29.2002 46.5 -62.2002 99.1006 -84.9004 168.8c-22.5996 -69.2998 -55.5996 -122 -84.7998 -168.6c-33.1006 -52.7998 -59.2002 -94.5 -59.2002 -142c0 -74.5 64.5996 -135 144 -135s144 60.5996 144 135zM384 448
c35.2998 0 64 -28.7002 64 -64s-28.7002 -64 -64 -64s-64 28.7002 -64 64s28.7002 64 64 64zM384 352c17.7002 0 32 14.2998 32 32s-14.2998 32 -32 32s-32 -14.2998 -32 -32s14.2998 -32 32 -32z" />
    <glyph glyph-name="eclipse" unicode="&#xf749;" horiz-adv-x="640" 
d="M256 -19.4004l34.9004 51.8008c7.59961 -7.5 15.8994 -14.3008 24.5996 -20.7002l-46.4004 -68.6006c-2.89941 -4.39941 -7.89941 -7 -13.1992 -7c-5.30078 0 -10.2002 2.60059 -13.2002 7l-55.7998 82.4004l-97.7002 -18.9004
c-5.10059 -1 -10.6006 0.700195 -14.2998 4.40039c-3.7002 3.7002 -5.40039 9.09961 -4.40039 14.2998l18.9004 97.7002l-82.4004 55.7998c-4.40039 2.90039 -7 7.90039 -7 13.2002s2.59961 10.2002 7 13.2002l82.4004 55.7998l-18.8008 97.7002
c-1 5.2002 0.700195 10.5996 4.40039 14.2998s9.09961 5.40039 14.2998 4.40039l97.7002 -18.8008l55.7998 82.4004c2.90039 4.40039 7.90039 7 13.2002 7s10.2002 -2.59961 13.2002 -7l46.5 -68.7998c-8.7002 -6.2998 -17 -13.2002 -24.6006 -20.7002l-35.0996 51.9004
l-48.2998 -71.5c-3.60059 -5.30078 -10.1006 -7.90039 -16.2998 -6.80078l-84.8008 16.4004l16.4004 -84.7998c1.2002 -6.2998 -1.5 -12.7002 -6.7998 -16.2998l-71.6006 -48.4004l71.6006 -48.4004c5.39941 -3.59961 8 -10 6.7998 -16.2998l-16.4004 -84.7998
l84.8008 16.4004c1 0.199219 2 0.299805 3 0.299805c5.19922 0 10.1992 -2.60059 13.1992 -7zM238.2 269.8c-15.9004 -3.7002 -29.2998 -11.8994 -38.7002 -21.2002c-20.7002 -20.6992 -35.5 -60.3994 -9.59961 -104.3c4.39941 -7.5 10.8994 -14 18.3994 -18.3994
c10.2998 -6.10059 20.4004 -9.80078 30 -11.8008c4.40039 -11.8994 9.7002 -23.1992 16 -34c-20.7998 0.400391 -42.2002 6.30078 -62.2998 18.2002c-12.2002 7.2998 -22.5 17.5 -29.7002 29.7002c-29 49.2002 -23.2998 105.4 14.5 143.2
c21.4004 21.3994 48.7998 32.0996 77.2998 32.5c-6.19922 -10.7998 -11.5 -22.1006 -15.8994 -33.9004zM448 384c106 0 192 -86 192 -192s-86 -192 -192 -192s-192 86 -192 192s86 192 192 192zM448 32c88.2002 0 160 71.7998 160 160s-71.7998 160 -160 160
s-160 -71.7998 -160 -160s71.7998 -160 160 -160z" />
    <glyph glyph-name="eclipse-alt" unicode="&#xf74a;" 
d="M512 192c0 -5.2998 -2.59961 -10.2998 -7 -13.2002l-82.4004 -55.7998l18.7002 -97.7002c1 -5.2002 -0.700195 -10.5996 -4.39941 -14.2998c-3.7002 -3.7002 -9.10059 -5.40039 -14.3008 -4.40039l-97.6992 18.9004l-55.8008 -82.4004
c-2.89941 -4.39941 -7.89941 -7 -13.1992 -7c-5.30078 0 -10.2002 2.60059 -13.2002 7l-55.7998 82.4004l-97.7002 -18.9004c-5.2002 -1 -10.6006 0.700195 -14.2998 4.40039c-3.7002 3.7002 -5.40039 9.09961 -4.40039 14.2998l18.9004 97.7002l-82.4004 55.7998
c-4.40039 2.90039 -7 7.90039 -7 13.2002s2.59961 10.2002 7 13.2002l82.4004 55.7998l-18.8008 97.7002c-1 5.2002 0.700195 10.5996 4.40039 14.2998s9.09961 5.40039 14.2998 4.40039l97.7002 -18.8008l55.7998 82.4004c2.90039 4.40039 7.90039 7 13.2002 7
s10.2002 -2.59961 13.2002 -7l55.7998 -82.4004l97.7002 18.8008c5.2002 0.899414 10.5996 -0.700195 14.2998 -4.40039s5.40039 -9.09961 4.40039 -14.2998l-18.9004 -97.7002l82.5 -55.7998c4.40039 -2.90039 7 -7.90039 7 -13.2002zM395.9 143.6l71.5996 48.3008
l-71.5996 48.3994c-5.40039 3.60059 -8 10 -6.80078 16.2998l16.4004 84.8008l-84.7998 -16.4004c-6.2002 -1.09961 -12.7002 1.5 -16.2998 6.7998l-48.4004 71.6006l-48.2998 -71.5c-3.60059 -5.30078 -10.1006 -7.90039 -16.2998 -6.80078l-84.8008 16.4004
l16.4004 -84.7998c1.2002 -6.2998 -1.5 -12.7002 -6.7998 -16.2998l-71.6006 -48.4004l71.6006 -48.4004c5.39941 -3.59961 8 -10 6.7998 -16.2998l-16.4004 -84.7998l84.8008 16.4004c1 0.199219 2 0.299805 3 0.299805c5.19922 0 10.1992 -2.60059 13.1992 -7
l48.4004 -71.6006l48.4004 71.5c3.59961 5.30078 10 8 16.2998 6.80078l84.7998 -16.4004l-16.4004 84.7998c-1.19922 6.2998 1.5 12.7002 6.80078 16.2998zM327 154.9c7.7998 0 15 -4.60059 18.4004 -11.7002c3.39941 -7.2002 2.39941 -15.5 -2.60059 -21.7002
c-21.2998 -26.4004 -53 -41.5 -86.8994 -41.5c-61.7002 0 -111.9 50.2002 -111.9 112s50.2002 112 111.9 111.9c6.7998 0 13.6992 -0.700195 20.3994 -1.90039c8.60059 -1.5 15.1006 -8.09961 16.5 -16.7002c1.40039 -8.59961 -2.5 -16.8994 -10.0996 -21.2002
c-18.4004 -10.5 -29.9004 -30.2998 -29.9004 -51.5c0 -32.5996 26.5 -59.1992 59 -59.1992c3.7998 0 7.60059 0.399414 11.2998 1.09961c1 0.200195 2.90039 0.400391 3.90039 0.400391zM255.9 112c14.2998 0 28.0996 3.7998 40.1992 10.7002
c-42.6992 7.5 -75.2998 45 -75.2998 89.8994c0.00683594 22.04 7.87012 42.3223 20.9004 58.1006c-37.2998 -6.7002 -65.7002 -39.4004 -65.7002 -78.7002c0 -44.0996 35.7998 -80 79.9004 -80z" />
    <glyph glyph-name="fire-smoke" unicode="&#xf74b;" horiz-adv-x="576" 
d="M464 160c61.7998 0 112 -50.2002 112 -112s-50.2002 -112 -112 -112h-352c-61.7998 0 -112 50.2002 -112 112s50.2002 112 112 112c25.5 0 50 -8.90039 69.7998 -24.7998c23.4004 35.0996 63.1006 56.7998 106.2 56.7998s82.7998 -21.7002 106.2 -56.7998
c19.7998 15.8994 44.2998 24.7998 69.7998 24.7998zM464 -32c44.0996 0 79.9004 35.9004 79.9004 80s-35.9004 80 -80 80c-23.4004 0 -45.8008 -10.5996 -61.2002 -29.2002l-16.5 -19.8994l-10.4004 23.6992c-15.3994 34.8008 -49.7998 57.4004 -87.7998 57.4004
s-72.4004 -22.5996 -87.9004 -57.4004l-10.3994 -23.6992l-16.5 19.8994c-15.4004 18.5 -37.7002 29.2002 -61.2002 29.2002c-44.0996 0 -80 -35.9004 -80 -80s35.9004 -80 80 -80h352zM400.9 177.2c-7.30078 7.2998 -15.3008 13.7002 -23.7002 19.5
c2.2998 15.8994 0.799805 32.7002 -5.60059 48.7002l-37.5996 -18.1006l-20.9004 -10.0996l-16.0996 16.7002c-11.2998 11.7998 -38.5 40.1992 -59.5 62.2998c-27.2002 -35.7002 -39.5996 -58.2998 -39.5996 -80c0 -7 0.699219 -13.2998 1.7998 -19.4004
c-8.7998 -5.7998 -17.1006 -12.2002 -24.6006 -19.5996c-1.19922 0.599609 -2.5 1 -3.69922 1.59961c-3.30078 11.6006 -5.60059 23.9004 -5.60059 37.4004c0 38.0996 23.2002 71.7002 69.5 129.1c6.60059 -7.89941 84.7002 -89.2998 84.7002 -89.2998l65.5 31.5
c4 -6.7002 7.59961 -13.4004 10.7998 -19.7002c14.1006 -27.7002 17 -59.5 9.7002 -88.3994c-1.7002 -0.800781 -3.40039 -1.40039 -5.09961 -2.2002zM112 192c-4.7998 0 -9.40039 -1 -14.0996 -1.40039c-1.10059 8.2002 -1.90039 16.6006 -1.90039 25.1006
c0 59.0996 59.7998 157.1 144 232.3c32.7998 -29.2998 56.5996 -65 80 -96c14.2002 16.7998 35.5 37.7998 53.4004 53.9004c62.0996 -55.5 106.699 -146.2 106.699 -190.101c0 -8.5 -0.799805 -16.8994 -1.89941 -25.0996
c-4.7002 0.399414 -9.2998 1.39941 -14.1006 1.39941c-6.2998 0 -12.5 -0.5 -18.5996 -1.2998c1.40039 8.2002 2.59961 16.4004 2.59961 25c0 28 -29.2998 94.7998 -75.2998 145.601c-10.8994 -10.7002 -21 -21.4004 -28.2998 -30l-25.9004 -30.5l-24.0996 31.8994
c-4.40039 5.7002 -8.7002 11.6006 -13.0996 17.6006c-13.2002 17.8994 -26.7002 36.1992 -42 53.0996c-70.2002 -69.9004 -111.4 -147.9 -111.4 -187.8c0 -8.60059 1.2998 -16.7998 2.59961 -25c-6.19922 0.799805 -12.2998 1.2998 -18.5996 1.2998z" />
    <glyph glyph-name="flag-alt" unicode="&#xf74c;" 
d="M472.5 448c20.9004 0 39.5 -13 39.5996 -33.4004v-326.399c0 -13.2998 -8.7998 -25.7998 -22.7998 -31.2002c-48.5996 -18.5 -88.3994 -25 -123.7 -25c-81.2998 0 -137.899 34.4004 -219.1 34.4004c-32.9004 0 -70.2998 -6.2002 -114.5 -22v-100.4
c0 -4.40039 -3.59961 -8 -8 -8h-16c-4.40039 0 -8 3.59961 -8 8v488c0 8.7998 7.2002 16 16 16s16 -7.2002 16 -16v-7.59961c49.2002 16.6992 87.7998 23.1992 119.4 23.1992c76.2998 0 114.699 -34.5 180.8 -34.5c31.2998 0 68.5996 7.60059 119.1 30.3008
c6.90039 3.09961 14.2002 4.59961 21.2002 4.59961zM365.5 64c55.5996 0 113.6 22 114.4 24.5v320.1c0 6.10059 -6.30078 9.80078 -15.7002 5.60059c-50.2998 -22.6006 -92.2998 -33.1006 -132.101 -33.1006c-72.3994 0 -111.3 34.5 -180.8 34.5
c-34.0996 0 -73.3994 -8.09961 -119.399 -24.7998v-312.2c40.0996 13.3008 77.7998 19.8008 114.5 19.8008c86.0996 0 143.5 -34.4004 219.1 -34.4004z" />
    <glyph glyph-name="flag-usa" unicode="&#xf74d;" 
d="M472.5 448c20.9004 0 39.5 -13 39.5996 -33.4004v-326.399c0 -13.2998 -8.7998 -25.7998 -22.7998 -31.2002c-48.5996 -18.5 -88.3994 -25 -123.7 -25c-81.2998 0 -137.899 34.4004 -219.1 34.4004c-32.9004 0 -70.2998 -6.2002 -114.5 -22v-100.4
c0 -4.40039 -3.59961 -8 -8 -8h-16c-4.40039 0 -8 3.59961 -8 8v488c0 8.7998 7.2002 16 16 16s16 -7.2002 16 -16v-7.59961c49.2002 16.6992 87.7998 23.1992 119.4 23.1992c76.2998 0 114.699 -34.5 180.8 -34.5c31.2998 0 68.5996 7.60059 119.1 30.3008
c6.90039 3.09961 14.2002 4.59961 21.2002 4.59961zM256 393.7v-53.6006c70.7998 -12.1992 125.2 -25.5996 224 16.1006v52.3994c0 6.10059 -6.2998 9.80078 -15.7002 5.60059c-94.3994 -42.2998 -150 -38 -208.3 -20.5zM256 307.7v-51.2998
c61.2002 -14.4004 120.5 -29.4004 224 4v61.5996c-49.4004 -19.2998 -90 -26.2998 -125.2 -26.2998c-34.5996 0 -64.2998 5.89941 -98.7998 12zM32 390.8v-137.7c83.4004 25.2002 140.9 20.8008 192 10.4004v140c-22.0996 6.59961 -44.9004 12.0996 -72.5996 12.0996
c-34.1006 0 -73.4004 -8.09961 -119.4 -24.7998zM32 219.7v-54.6006c103.2 31.1006 166.7 16.9004 227.7 2.5c61.3994 -14.5 119.899 -27.6992 220.399 4.7002v54.5c-107.5 -32.3994 -170.199 -16 -227.699 -2.39941c-61.3008 14.5 -119.801 27.6992 -220.4 -4.7002z
M365.5 64c55.5996 0 113.6 22 114.4 24.5v50.2998c-107.2 -32.2998 -168.9 -16.2002 -227.7 -2.39941c-61.2998 14.5 -119.7 27.6992 -220.3 -4.7002v-53.1006c40.0996 13.3008 77.7998 19.8008 114.5 19.8008c86.0996 0 143.5 -34.4004 219.1 -34.4004zM96 384
c8.7998 0 16 -7.2002 16 -16s-7.2002 -16 -16 -16s-16 7.2002 -16 16s7.2002 16 16 16zM168 352c-8.7998 0 -16 7.2002 -16 16s7.2002 16 16 16s16 -7.2002 16 -16s-7.2002 -16 -16 -16zM96 328c8.7998 0 16 -7.2002 16 -16s-7.2002 -16 -16 -16s-16 7.2002 -16 16
s7.2002 16 16 16zM168 296c-8.7998 0 -16 7.2002 -16 16s7.2002 16 16 16s16 -7.2002 16 -16s-7.2002 -16 -16 -16z" />
    <glyph glyph-name="fog" unicode="&#xf74e;" horiz-adv-x="640" 
d="M168 128c-57.2998 0 -104 46.7002 -104 104c0 42.0996 25.7002 79.5996 64 95.5996v0.400391c0 66.2002 53.7998 120 120 120c37.5 0 72.2998 -17.7002 94.7998 -47.2002c14.4004 9.90039 31.4004 15.2002 49.2002 15.2002c45.9004 0 83.7998 -35.4004 87.7002 -80.2998
c53.7002 -3.90039 96.2998 -48.9004 96.2998 -103.7c0 -57.2998 -46.7002 -104 -104 -104h-304zM149.3 301.2c-31.3994 -8.5 -53.2998 -36.9004 -53.2998 -69.2998c0 -39.7002 32.2998 -72 72 -72h304c39.7002 0 72 32.2998 72 72c0 39.6992 -32.2998 72 -72 72
c-1.2998 0 -2.59961 -0.200195 -3.7998 -0.400391l-23.5 -2.40039l2.5 20c0.5 3.80078 0.799805 5.30078 0.799805 6.90039c0 30.9004 -25.0996 56 -56 56c-15.5996 0 -30.0996 -6.40039 -41 -18.0996l-15.2002 -16.5l-10.5996 19.7998
c-15.4004 28.8994 -45 46.7998 -77.2002 46.7998c-48.5 0 -88 -39.5 -88 -88c0 -2 0.299805 -4 0.599609 -6l2 -17.2002zM216 -32c4.40039 0 8 -3.59961 8 -8v-16c0 -4.40039 -3.59961 -8 -8 -8h-144c-4.40039 0 -8 3.59961 -8 8v16c0 4.40039 3.59961 8 8 8h144zM632 -32
c4.40039 0 8 -3.59961 8 -8v-16c0 -4.40039 -3.59961 -8 -8 -8h-336c-4.40039 0 -8 3.59961 -8 8v16c0 4.40039 3.59961 8 8 8h336zM576 40c0 -4.40039 -3.59961 -8 -8 -8h-560c-4.40039 0 -8 3.59961 -8 8v16c0 4.40039 3.59961 8 8 8h560c4.40039 0 8 -3.59961 8 -8v-16z
" />
    <glyph glyph-name="house-flood" unicode="&#xf74f;" horiz-adv-x="576" 
d="M252 255h72c15.4004 0 28 -12.5996 28 -28v-72c0 -15.4004 -12.5996 -28 -28 -28h-72c-15.4004 0 -28 12.5996 -28 28v72c0 15.4004 12.5996 28 28 28zM320 159v64h-64v-64h64zM568.3 -1c4.2998 -0.200195 7.7002 -3.59961 7.7002 -7.90039v-16
c0 -4.5 -3.7998 -8.2998 -8.2998 -8.09961c-32 1.5 -63 11.4004 -87.6006 27.9004c-52.7998 -35.8008 -138.3 -36.1006 -192 0c-52.7998 -35.8008 -138.199 -36.1006 -192 0c-24.5 -16.5 -55.5 -26.4004 -87.7998 -27.9004c-4.5 -0.200195 -8.2998 3.59961 -8.2998 8.09961
v16c0 4.30078 3.40039 7.7002 7.7002 7.90039c29.7998 1.5 58 11.5996 78.2002 28.2002c5.89941 4.7998 14.2998 4.89941 20.1992 0.0996094c44.8008 -36.2998 128.101 -36 171.801 -0.0996094c5.89941 4.89941 14.2998 4.89941 20.1992 0.0996094
c44.8008 -36.3994 128.101 -36 171.801 -0.0996094c5.89941 4.89941 14.2998 4.89941 20.1992 0.0996094c20.5 -16.7002 48.7002 -26.7998 78.2002 -28.2998zM45.9004 195.6l-12.6006 15.6006c-2.09961 2.5 -1.7002 6.2998 0.900391 8.39941l233.5 188.301
c11.7002 9.5 28.5 9.5 40.2002 0l139.8 -112.801v50.1006c0 3.2998 2.7002 6 6 6h20c3.2998 0 6 -2.7002 6 -6v-75.9004l61.7998 -49.7002c2.5 -2.09961 3 -5.89941 0.900391 -8.5l-12.6006 -15.5996c-2.09961 -2.59961 -5.89941 -3 -8.5 -0.900391l-41.5996 33.5v-165.3
c-11 -0.0996094 -21.7002 -3.89941 -30.2002 -10.8994c-0.599609 -0.400391 -1.2998 -0.800781 -1.90039 -1.2002v203.3l-156 125.9c-2.19922 1.7998 -5.2998 1.7998 -7.5 0l-156.1 -125.9v-203c-0.599609 0.400391 -1.2998 0.700195 -1.7998 1.09961
c-8.60059 6.90039 -19.2998 10.7002 -30.2002 10.7002v165.4l-41.5996 -33.5c-2.60059 -2.10059 -6.40039 -1.7002 -8.5 0.899414z" />
    <glyph glyph-name="humidity" unicode="&#xf750;" horiz-adv-x="384" 
d="M160 156c0 -15.5 -12.5 -28 -28 -28s-28 12.5 -28 28s12.5 28 28 28s28 -12.5 28 -28zM252 96c15.5 0 28 -12.5 28 -28s-12.5 -28 -28 -28s-28 12.5 -28 28s12.5 28 28 28zM223.9 425.9c51.1992 -158.5 160.1 -200.101 160.1 -311.801
c0 -98.3994 -85.9004 -178.1 -192 -178.1s-192 79.7002 -192 178.1c0 111.2 109.1 154.101 160.2 311.801c4.7998 14.8994 18.2998 22.0996 31.7998 22.0996c13.7998 0 27.5 -7.5 31.9004 -22.0996zM192 -32c88.2002 0 160 65.5 160 146.1
c0 47.9004 -24.9004 80.5 -59.4004 125.7c-32.5996 42.7002 -73.0996 95.7002 -99.0996 176.101h-0.0996094c-0.200195 0 -0.700195 0.0996094 -1.40039 0.0996094c-1 0 -1.7002 -0.200195 -1.7998 -0.299805c-25.5 -79.7002 -66 -132.9 -98.6006 -175.7
c-34.5996 -45.5 -59.5996 -78.2998 -59.5996 -125.9c0 -80.5996 71.7998 -146.1 160 -146.1zM253 180.2c3.40039 -2.7002 4 -7.7998 1.2002 -11.2002l-99.5 -134c-2.7002 -3.40039 -7.7002 -4 -11.2002 -1.2002l-12.5 10c-3.40039 2.7002 -4 7.7002 -1.2002 11.2002
l99.5 134c2.7002 3.40039 7.7002 4 11.2002 1.2002z" />
    <glyph glyph-name="landmark-alt" unicode="&#xf752;" 
d="M504 -32c4.40039 0 8 -3.59961 8 -8v-16c0 -4.40039 -3.59961 -8 -8 -8h-496c-4.40039 0 -8 3.59961 -8 8v16c0 4.40039 3.59961 8 8 8h24v80c0 8.7998 7.2002 16 16 16h16v128h-24c-4.40039 0 -8 3.59961 -8 8v16c0 4.40039 3.59961 8 8 8h24
c0 100.5 77.5996 183 176 191.2v24.7998c0 4.40039 3.59961 8 8 8h16c4.40039 0 8 -3.59961 8 -8v-24.7998c98.4004 -8.2002 176 -90.7002 176 -191.2h24c4.40039 0 8 -3.59961 8 -8v-16c0 -4.40039 -3.59961 -8 -8 -8h-24v-128h16c8.7998 0 16 -7.2002 16 -16v-80h24z
M256 384c-88.2002 0 -160 -71.7998 -160 -160h320c0 88.2002 -71.7998 160 -160 160zM416 192h-80v-128h80v128zM304 192h-96v-128h96v128zM96 192v-128h80v128h-80zM448 -32v64h-384v-64h384z" />
    <glyph glyph-name="moon-cloud" unicode="&#xf754;" horiz-adv-x="576" 
d="M320 147.2c0 -45.9004 -37.2998 -83.2002 -83.2002 -83.2002h-153.6c-45.9004 0 -83.2002 37.2998 -83.2002 83.2002c0 36.2002 23 66.8994 55.5 78.2998c14.9004 37.2998 50.7998 62.5 92.5 62.5c39.4004 0 74.0996 -23.5 90.2002 -57.5996
c45.2002 -0.800781 81.7998 -37.8008 81.7998 -83.2002zM236.8 96c28.2998 0 51.2002 22.9004 51.2002 51.2002s-22.9004 51.2002 -51.2002 51.2002c-7.7002 0 -14.7998 -2.2002 -21.2998 -5.30078c-2.7002 35.1006 -31.7002 62.9004 -67.5 62.9004
c-34.0996 0 -62.0996 -25.0996 -67 -57.7998c-27.2002 -1.2002 -49 -23.5 -49 -51c0 -28.2998 22.9004 -51.2002 51.2002 -51.2002h153.6zM573.6 96.7998c4.10059 -8.5 2.90039 -18.3994 -3.09961 -25.5996c-36.5996 -45.2002 -90.9004 -71.1006 -149 -71.1006
c-48.5996 0 -92.9004 18.3008 -126.7 48.2002c9.60059 5.7002 18.2998 12.5 25.9004 20.6006c27.5996 -22.7002 62.3994 -36.9004 100.8 -36.9004c41.5 0 80.7002 15.9004 110.3 44.2002c-2.59961 -0.100586 -5.2002 -0.200195 -7.7998 -0.200195
c-84.5996 0 -153.5 69 -153.5 153.9c0 48 22.5 93 59.9004 121.899c-3 0.100586 -5.90039 0.200195 -8.90039 0.200195c-65.5 0 -121.8 -39.7998 -146.5 -96.2002c-5.5 2 -11.2002 3.7002 -17.0996 4.7998c-3 4.5 -6.30078 8.90039 -9.80078 13
c30.7002 65.2002 96.8008 110.5 173.4 110.5c11.7002 0 23.5 -1.09961 35 -3.19922c10.0996 -1.90039 17.7998 -9.60059 19.5 -19.8008c1.7002 -10.0996 -3 -20 -11.9004 -25.0996c-38 -21.7002 -61.5996 -62.2998 -61.5996 -106c0 -67.2002 54.5 -121.9 121.5 -121.9
c7.7002 0 15.5 0.700195 23.2002 2.2002c1.59961 0.299805 3.09961 0.400391 4.59961 0.400391c9.40039 0 17.7002 -5.2998 21.7998 -13.9004z" />
    <glyph glyph-name="moon-stars" unicode="&#xf755;" 
d="M333.9 21.7998c7.19922 0 11.7998 -8.7002 6.89941 -14.7002c-35.7998 -44.1992 -89.7998 -71.0996 -149 -71.0996c-106 0 -191.8 86 -191.8 192c0 106.1 85.9004 192 191.8 192c11.7002 0 23.4004 -1.09961 35 -3.2002
c8.2002 -1.59961 10.1006 -12.5996 2.7998 -16.7002c-47.0996 -26.7998 -76.0996 -76.5996 -76.0996 -130.8c0 -84.2998 68.7002 -150.399 150 -150.399c9.40039 0 19 0.899414 28.5996 2.69922c0.600586 0.100586 1.2002 0.200195 1.80078 0.200195zM191.8 -32
c28.7002 0 56.2998 7.59961 80.2998 21.5996c-85.3994 15 -150.5 89.9004 -150.5 179.7c0 43 15.2002 84 41.8008 116.2c-74.6006 -13.5 -131.4 -79 -131.4 -157.5c0 -88.2002 71.7002 -160 159.8 -160zM503.2 254.3c5.39941 -2.7002 8.7998 -8.2002 8.7998 -14.2998
s-3.40039 -11.5996 -8.7998 -14.2998l-48.6006 -24.2998l-24.2998 -48.6006c-2.7002 -5.39941 -8.2002 -8.7998 -14.2998 -8.7998s-11.5996 3.40039 -14.2998 8.7998l-24.2998 48.6006l-48.6006 24.2998c-5.39941 2.7002 -8.7998 8.2002 -8.7998 14.2998
s3.40039 11.5996 8.7998 14.2998l48.6006 24.2998l24.2998 48.6006c5.39941 10.7998 23.2002 10.7998 28.5996 0l24.2998 -48.6006zM435.5 227.6l24.7002 12.4004l-24.7002 12.4004c-3.09961 1.59961 -5.59961 4.09961 -7.2002 7.19922l-12.2998 24.7002l-12.2998 -24.7002
c-1.60059 -3.09961 -4.10059 -5.69922 -7.2002 -7.19922l-24.7002 -12.4004l24.7002 -12.2998c3.09961 -1.60059 5.59961 -4.10059 7.2002 -7.2002l12.2998 -24.7002l12.2998 24.6006c1.60059 3.09961 4.10059 5.69922 7.2002 7.19922zM304 352l-16 32l-32 16l32 16l16 32
l16 -32l32 -16l-32 -16z" />
    <glyph glyph-name="person-booth" unicode="&#xf756;" horiz-adv-x="576" 
d="M224.1 -56v184h32v-184c0 -4.40039 -3.59961 -8 -8 -8h-16c-4.39941 0 -8 3.59961 -8 8zM544 448c17.7002 0 32 -14.2998 32 -32v-472c0 -4.40039 -3.59961 -8 -8 -8h-16c-4.40039 0 -8 3.59961 -8 8v93.5996c-7.2998 -3.5 -15.4004 -5.59961 -24 -5.59961
c-15.7002 0 -29.7998 6.5 -40 16.9004c-10.2002 -10.4004 -24.2998 -16.9004 -40 -16.9004c-12.0996 0 -23.2998 4 -32.5 10.5996c-10 -6.69922 -21.7002 -10.5996 -34 -10.5996c-34 0 -61.7002 27.7002 -61.7002 61.7998c0 23.9004 18.1006 95.9004 23.5 117.101
l-79.2002 205.1v-128h-32v128c0 17.7002 14.3008 32 32 32h287.9zM373.5 64c5.2002 0 9.90039 1.7002 14.4004 4.2998c-2.40039 6.10059 -3.80078 12.7002 -3.80078 19.7002v328h-93.1992l76.1992 -198.4c1.2002 -3.09961 1.30078 -6.59961 0.5 -9.7998
c-9.19922 -35.0996 -23.7998 -97.0996 -23.7998 -114c0 -16.3994 13.2998 -29.7998 29.7002 -29.7998zM464 88v328h-48v-328c0 -13.2998 10.7002 -24 24 -24s24 10.7002 24 24zM544 88v328h-48v-328c0 -13.2998 10.7998 -24 24 -24c13.2998 0 24 10.7002 24 24zM240.1 256
c26.5 0 48.1006 -21.4004 48.1006 -47.9004s-21.5 -48 -48 -48h-57.6006c-14 0 -27.6992 4.7002 -38.7998 13.1006v-55.7998c34.5 -33.7002 48 -40.1006 48 -76.9004v-56.5c0 -26.5 -21.5 -48 -48 -48c-25.5 0 -46.2998 19.9004 -47.8994 45
c-1.60059 -25.0996 -22.5 -45 -48 -45c-26.4004 0.0996094 -47.9004 21.5996 -47.9004 48.0996l0.200195 159.9l-0.100586 95.7998c-0.0996094 21.4004 8.2002 41.6006 23.3008 56.7002c8 8 17.3994 13.9004 27.5996 17.9004c-21 12.5996 -35.2002 35.3994 -35.2002 61.5996
c0 39.7002 32.2998 72 72 72s72 -32.2998 72 -72c0 -25.7002 -13.7002 -48.2002 -34.0996 -60.9004c11 -3.89941 21.0996 -10 29.5996 -18.5l40.5 -40.5996h44.2998zM47.7998 376c0 -22.0996 17.9004 -40 40 -40c22.1006 0 40 17.9004 40 40s-17.8994 40 -40 40
c-22.0996 0 -40 -17.9004 -40 -40zM240.1 192c8.90039 0 16 7.2002 16 16s-7.19922 16 -16 16h-57.5996l-49.9004 49.9004c-9 9.09961 -21.0996 14.0996 -33.8994 14.0996h-18.7002c-26.7998 0 -48 -21.9004 -48 -48.0996l0.200195 -95.9004l-0.200195 -160
c0 -8.7998 7.2002 -16 16 -16s16 7.2002 16 16l0.0996094 121.9c79.1006 -76.1006 63.6006 -43.7002 63.6006 -121.9c0 -8.7998 7.2002 -16 16 -16s16 7.2002 16 16v56.5c0 21.2998 -5.90039 22.2002 -48 63.4004v145.699l48.2002 -48.1992
c6 -6 14.1992 -9.40039 22.5996 -9.40039h57.5996z" />
    <glyph glyph-name="person-sign" unicode="&#xf757;" 
d="M501.5 381.4c8.2998 -3.10059 12.5996 -12.2002 9.5 -20.5l-36.5 -100.4c-2.5 -6.7998 -11.5996 -12.9004 -20.5 -9.59961l-76.5996 27.8994l-28.6006 -70.2002c3 -8.19922 3.90039 -17.1992 2.10059 -26c-3.10059 -15 -13.2002 -26.6992 -26.2002 -33.0996
l-6.7002 -16.5996c-1.7002 -4.10059 -6.40039 -6 -10.5 -4.30078l-14.7998 6.2002c-4.10059 1.7002 -6 6.40039 -4.2998 10.5l0.299805 0.799805l-60.7998 12.2002c-7 1.40039 -13.8008 3.7002 -20.1006 6.90039v-20.2998l46.5 -58.1006
c11.2998 -14.2002 17.5 -31.8994 17.5 -50v-52.7998c0 -26.5 -21.5 -48 -48 -48s-48 21.5 -48 48v47.2002l-15.8994 19.8994l-17.2002 -77.5c-4.7998 -21.7998 -24.5 -37.5996 -46.7998 -37.5996c-3.40039 0 -6.80078 0.299805 -10.4004 1.09961
c-25.7998 5.80078 -42.0996 31.5 -36.4004 57.3008l28.4004 127.699c-24.5 -19.0996 -50.2998 -5.2998 -51 -5c-23.7002 11.8008 -33.2998 40.7002 -21.5 64.4004l36.2998 72.4004c11.9004 23.7998 31 42.1992 53.7998 53.5
c-14.0996 13.1992 -23.0996 31.7998 -23.0996 52.5996c0 39.7002 32.0996 72 71.7998 72s72 -32.2998 72 -72c0 -19.5996 -7.89941 -37.4004 -20.7002 -50.4004c19.6006 -9 36.5 -23.5 48.4004 -42.5l10.0996 -16.0996l59.7002 -11.9004
c4.2002 -0.899414 7.7998 -3 11.5 -4.7998l22.5 55.4004l-73.5996 26.7998c-8.40039 3 -12.6006 12.2002 -9.60059 20.5l36.5 100.4c2.5 6.89941 11.6006 12.7998 20.5 9.59961l78.6006 -28.5996l10 24.6992c1.7002 4.10059 6.39941 6 10.5 4.30078l14.7998 -6.2002
c4.09961 -1.7002 6 -6.40039 4.2998 -10.5l-9.5 -23.2002zM143.9 400c-22.1006 0 -40 -17.9004 -40 -40s17.8994 -40 40 -40c22.0996 0 40 17.9004 40 40s-17.9004 40 -40 40zM301.1 176.3l11.5 28.9004c-1.69922 1.2002 -3.69922 2.09961 -5.89941 2.5l-66.4004 13.2998
c-4.2998 0.900391 -8.09961 3.5 -10.3994 7.2002l-13.7002 21.8994c-14.7998 23.7002 -40.2998 37.9004 -68.2998 37.9004c-33.3008 0 -63.3008 -18.5996 -78.2002 -48.4004l-36.2002 -72.5c-3.90039 -7.89941 -0.700195 -17.5 7.2002 -21.5
c9.39941 -4.69922 18.3994 1 21.5 7.2002l36.2002 72.5c3.2998 6.7002 8.09961 12 13.3994 16.7002v-112.3l-31.5996 -142.3c-1.90039 -8.60059 3.59961 -17.2002 12.2002 -19.1006c9.5 -2 17.3994 4.5 19.0996 12.2002l29.2002 131.5h11.5l52.2002 -65.2002
c2.2998 -2.7998 3.5 -6.39941 3.5 -10v-52.7998c0 -8.7998 7.19922 -16 16 -16c8.7998 0 16 7.2002 16 16v52.7002c0 10.8994 -3.7002 21.5 -10.5 30l-53.5 66.8994v113.2c10.7998 -7.59961 12.5 -12.2998 27.0996 -35.5996c7 -11.1006 18.4004 -19 31.2998 -21.6006
l66.4004 -13.2998h0.399414zM449.9 286.4l25.5996 70.3994l-150.3 54.7002l-25.6006 -70.4004z" />
    <glyph glyph-name="podium-star" unicode="&#xf758;" horiz-adv-x="448" 
d="M440 288c4.40039 0 8 -3.59961 8 -8v-16c0 -4.40039 -3.59961 -8 -8 -8h-56l-31.9004 -288h55.9004c4.40039 0 8 -3.59961 8 -8v-16c0 -4.40039 -3.59961 -8 -8 -8h-368c-4.40039 0 -8 3.59961 -8 8v16c0 4.40039 3.59961 8 8 8h56l-31.9004 286.2v1.7998h-56.0996
c-4.40039 0 -8 3.59961 -8 8v16c0 4.40039 3.59961 8 8 8h56v16c0 57.0996 43.2002 103.9 98.5 110.6c6.2002 19.3008 24.0996 33.4004 45.5 33.4004h64c26.5 0 48 -21.5 48 -48s-21.5 -48 -48 -48h-64c-20.4004 0 -37.7002 12.7998 -44.7002 30.7002
c-38.0996 -6.10059 -67.2998 -38.9004 -67.2998 -78.7002v-16h344zM208 416c-8.7998 0 -16 -7.2002 -16 -16s7.2002 -16 16 -16h64c8.7998 0 16 7.2002 16 16s-7.2002 16 -16 16h-64zM320 -32l31.9004 288h-255.9l31.9004 -286.2v-1.7998h192.1zM164.1 101.9
l-23.6992 23.0996c-6.80078 6.59961 -9.30078 16.5 -6.30078 25.5996c3 9.10059 10.7002 15.6006 20.2002 17l32.7002 4.80078l14.7002 29.6992c4.2002 8.60059 12.7998 13.9004 22.3994 13.9004c9.60059 0 18.2002 -5.2998 22.4004 -13.9004l14.5996 -29.6992
l32.7002 -4.80078c9.5 -1.39941 17.2002 -7.89941 20.2002 -17c3 -9.19922 0.599609 -19 -6.2998 -25.6992l-23.7002 -23.1006l5.59961 -32.5996c1.60059 -9.5 -2.19922 -18.9004 -10 -24.5c-7.7998 -5.7002 -17.8994 -6.2998 -26.2998 -1.90039l-29.2002 15.4004
l-29.2998 -15.4004c-3.7002 -1.89941 -7.59961 -2.89941 -11.5996 -2.89941c-5.10059 0 -10.2002 1.59961 -14.6006 4.7998c-7.89941 5.59961 -11.6992 15 -10.0996 24.5zM208.2 143.2l-35.4004 -5.10059l25.6006 -25l-6 -35.1992l31.5996 16.5996l31.5 -16.7002l-6 35.2002
l25.5996 25l-35.2998 5.2002l-15.7998 32z" />
    <glyph glyph-name="poo-storm" unicode="&#xf75a;" horiz-adv-x="448" 
d="M320 144c12.5 0 20.2998 -13.7998 13.5 -24.5c0 0 -108.5 -170.5 -111.9 -175.8c-0.899414 -1.40039 -5.09961 -7.60059 -13.5996 -7.60059c-8.09961 0 -17.4004 7.10059 -15.7998 18.2002l13.3994 93.7002h-61.5996c-10.2998 0 -18 9.7002 -15.5 19.9004l32 128
c1.7002 7.09961 8.2002 12.0996 15.5 12.0996h80c4.90039 0 9.59961 -2.2998 12.5996 -6.2002c3 -3.89941 4.10059 -8.89941 2.90039 -13.7002l-11 -44.0996h59.5zM234.3 22.7998c13.9004 22.2002 32.4004 51.2002 56.5 89.1006h-50.7998
c-10.2998 0 -18 9.69922 -15.5 19.8994l11 44.1006h-47l-24 -96h59.5c4.59961 0 9.09961 -2 12.0996 -5.5c3.10059 -3.5 4.5 -8.10059 3.80078 -12.7002zM392.9 250.2c32.6992 -16.4004 55.0996 -49.7998 55.0996 -87.5c0 -54.4004 -45.0996 -98.7002 -100.6 -98.7002
h-11.3008c9.5 14.9004 17 26.7002 21 33c33.2002 4.7002 58.9004 32.2998 58.9004 65.7002c0 34.7998 -27.9004 63.2998 -63 66.0996c5 8 8.2002 17.1006 8.2002 27.2002c0 29.4004 -24.6006 53.2998 -54.9004 53.2998h-5c3 8.40039 5 17.2998 5 26.7002
c0 44.2002 -36.8994 80 -82.2998 80c-4.40039 0 -8.7002 -0.700195 -12.9004 -1.2998c8 -10.9004 12.9004 -24.2002 12.9004 -38.7002c0 -36.9004 -30.7002 -66.7002 -68.5996 -66.7002h-13.7002c-30.2998 0 -54.9004 -23.7998 -54.9004 -53.2998
c0 -10 3.2002 -19.2002 8.2002 -27.2002c-35.0996 -2.7998 -63 -31.2998 -63 -66.0996c0 -36.7002 30.9004 -66.7002 68.5996 -66.6006h1.90039l-5.09961 -20.3994c-0.900391 -3.7002 -1.40039 -7.5 -1.40039 -11.2002c-53.2998 2.40039 -96 45.2998 -96 98.2002
c0 37.7002 22.4004 71.0996 55 87.5996c-0.0996094 2 -0.200195 3.90039 -0.200195 5.7998c0 47 39 85.3008 86.9004 85.3008h13.7002c20.1992 0 36.5996 15.5996 36.5996 34.6992c0 8.80078 -3.59961 15.6006 -6.7002 19.7002c-6.59961 9 -8 20.9004 -3.7998 31.2002
s13.5996 17.7002 24.7002 19.4004c5.39941 0.799805 11.2998 1.59961 17.7998 1.59961c63 0 114.3 -50.2002 114.2 -112v-0.700195c32.0996 -12.5 54.8994 -43.2998 54.8994 -79.2998c0 -2 -0.0996094 -3.90039 -0.199219 -5.7998z" />
    <glyph glyph-name="raindrops" unicode="&#xf75c;" horiz-adv-x="448" 
d="M406.6 195.3c21.3008 -29.8994 41.4004 -58.2002 41.5 -100c0 -70.2002 -57.3994 -127.3 -128 -127.3c-70.5996 0 -128 57.0996 -128 127.3c0 41.6006 20.2002 70 41.5 100c18.4004 25.9004 39.2002 55.2002 52.6006 99.5c4.59961 15.2002 19.7998 25.5 34.2002 25.2002
c15.7998 -0.200195 29.2998 -10.2998 33.5996 -25.2998c13.4004 -44.4004 34.2002 -73.7002 52.5996 -99.4004zM320 0c52.9004 0 96 42.7002 95.9004 95.4004c0 31.5996 -14.9004 52.5 -35.5 81.3994c-18.8008 26.4004 -42.2002 59.2998 -57.2002 108.8l-0.100586 0.300781
c-0.399414 1.39941 -1.89941 1.59961 -3.19922 2.09961c-2.40039 0 -3 -1.7002 -3.2002 -2.5c-14.9004 -49.2998 -38.2998 -82.2002 -57.1006 -108.7c-19.8994 -28 -35.5996 -50.0996 -35.5996 -81.5c0 -52.5996 43.0996 -95.2998 96 -95.2998zM240 306.1
c0 -36.3994 -28.7002 -66.0996 -64 -66.0996s-64 29.7002 -64 66.0996c0 21.3008 9.7998 35.8008 19.2998 49.8008c7.90039 11.5996 16.1006 23.6992 21.4004 42.2998c3.09961 10.7998 11.2002 17.8994 23.5996 17.7998
c10.9004 -0.0996094 20.2002 -7.2998 23.1006 -17.9004c5.39941 -18.5996 13.5 -30.5996 21.3994 -42.1992c9.40039 -14 19.2002 -28.4004 19.2002 -49.8008zM176 272c17.7002 0 32 15.2998 32 34.2002c0 11.0996 -4.7002 18.5 -13.7002 31.7998
c-5.7998 8.40039 -12.5 18.2998 -18.2998 31.2002c-5.7998 -12.9004 -12.5 -22.7002 -18.2002 -31.2002c-9.09961 -13.4004 -13.7998 -20.9004 -13.7998 -31.9004c0 -18.7998 14.2998 -34.0996 32 -34.0996zM87.4004 222.1c5.39941 -18.5996 13.5 -30.5996 21.3994 -42.1992
c9.40039 -14 19.2002 -28.4004 19.2002 -49.8008c0 -36.3994 -28.7002 -66.0996 -64 -66.0996s-64 29.7002 -64 66.0996c0 21.3008 9.7998 35.8008 19.2998 49.8008c7.90039 11.5996 16.1006 23.6992 21.4004 42.2998c3.09961 10.7998 13.5 16.5996 23.5996 17.7998
c10.9004 -0.0996094 20.2002 -7.2998 23.1006 -17.9004zM64 96c17.7002 0 32 15.2998 32 34.2002c0 11.0996 -4.7002 18.5 -13.7002 31.7998c-5.7998 8.40039 -12.5 18.2998 -18.2998 31.2002c-5.7998 -12.9004 -12.5 -22.7002 -18.2002 -31.2002
c-9.09961 -13.4004 -13.7998 -20.9004 -13.7998 -31.9004c0 -18.7998 14.2998 -34.0996 32 -34.0996z" />
    <glyph glyph-name="republican" unicode="&#xf75e;" horiz-adv-x="640" 
d="M173 287.8c4.90039 -0.700195 6.7998 -6.7002 3.2998 -10.2002l-19.7998 -19.2998l4.7002 -27.2998c0.799805 -4.90039 -4.40039 -8.59961 -8.7002 -6.2998l-24.5 12.8994l-24.5 -12.8994c-4.40039 -2.2998 -9.5 1.39941 -8.7002 6.2998l4.7998 27.2998l-19.7998 19.2998
c-3.59961 3.40039 -1.59961 9.5 3.2998 10.2002l27.4004 4l12.2002 24.7998c2.2002 4.5 8.5 4.40039 10.7002 0l12.1992 -24.7998zM301 287.8c4.90039 -0.700195 6.7998 -6.7002 3.40039 -10.2002l-19.8008 -19.2998l4.7002 -27.2998
c0.799805 -4.90039 -4.39941 -8.59961 -8.7002 -6.2998l-24.5 12.8994l-24.5 -12.8994c-4.39941 -2.2998 -9.5 1.39941 -8.69922 6.2998l4.69922 27.2998l-19.7998 19.2998c-3.59961 3.40039 -1.59961 9.5 3.2998 10.2002l27.4004 4l12.2002 24.7998
c2.2002 4.5 8.5 4.40039 10.7002 0l12.1992 -24.7998zM608 192c17.7002 0 32 -14.2998 32.0996 -32v-75.4004c0 -55.3994 -38.2998 -105.8 -92.8994 -115c-40 -6.7998 -76.5 8.10059 -100.9 34.3008c-5.39941 -20.6006 -24 -35.9004 -46.2998 -35.9004h-64
c-26.5 0 -48 21.5 -48 48v48h-128v-48c0 -26.5 -21.5 -48 -48 -48h-64c-26.5 0 -48 21.5 -48 48v240c0 88.4004 71.5996 160 160 160h192c88.4004 0 160 -71.5996 160 -160v-176c0 -8.7998 7.2002 -16 16 -16s16 7.2002 16 16v80c0 17.7002 14.2998 32 32 32h32zM32 256v-64
h448v64c0 70.5996 -57.4004 128 -128 128h-192c-70.5996 0 -128 -57.4004 -128 -128zM608 80v80h-32v-80c0 -26.5 -21.5 -48 -48 -48s-48 21.5 -48 48v80h-448v-144c0 -8.7998 7.2002 -16 16 -16h64c8.7998 0 16 7.2002 16 16v80h192v-80c0 -8.7998 7.2002 -16 16 -16h64
c8.7998 0 16 7.2002 16 16v80h32v-16c0 -44.0996 35.9004 -80 80 -80s80 35.9004 80 80zM429 287.8c4.90039 -0.700195 6.7998 -6.7002 3.40039 -10.2002l-19.8008 -19.2998l4.7002 -27.2998c0.799805 -4.90039 -4.39941 -8.59961 -8.7002 -6.2998l-24.5 12.8994
l-24.5 -12.8994c-4.39941 -2.2998 -9.5 1.39941 -8.69922 6.2998l4.69922 27.2998l-19.7998 19.2998c-3.59961 3.40039 -1.59961 9.5 3.2998 10.2002l27.4004 4l12.2002 24.7998c2.2002 4.5 8.5 4.40039 10.7002 0l12.1992 -24.7998z" />
    <glyph glyph-name="smog" unicode="&#xf75f;" horiz-adv-x="640" 
d="M179.2 160c-81.2002 0 -147.2 64.5996 -147.2 144s66 144 147.2 144c30.2002 0 58.8994 -8.90039 83.2002 -25.4004c24.2998 16.5 53 25.4004 83.1992 25.4004c44.3008 0 85.8008 -19.7998 113.4 -53c9 2.09961 18.2002 3.2002 27.4004 3.2002
c67 0 121.6 -53.4004 121.6 -119.101c0 -65.6992 -54.5 -119.1 -121.6 -119.1h-28.4004c-24.2998 -20.7002 -54.5996 -32 -86.7998 -32s-62.5 11.2998 -86.7998 32h-105.2zM179.2 416c-63.6006 0 -115.2 -50.0996 -115.2 -112s51.5996 -112 115.2 -112h117.899
c18.7002 -19.5996 44.9004 -32 74.1006 -32s55.3994 12.4004 74.0996 32h41.1006c49.5 0 89.5996 39 89.5996 87.0996c0 48.1006 -40.0996 87.1006 -89.5996 87.1006c-14.4004 0 -27.8008 -3.60059 -39.8008 -9.40039c-19.3994 35.1006 -57.0996 59.2002 -101 59.2002
c-32.7998 0 -62.1992 -13.5 -83.1992 -34.9004c-21 21.4004 -50.4004 34.9004 -83.2002 34.9004zM632 64c4.40039 0 8 -3.59961 8 -8v-16c0 -4.40039 -3.59961 -8 -8 -8h-560c-4.40039 0 -8 3.59961 -8 8v16c0 4.40039 3.59961 8 8 8h560zM568 -32
c4.40039 0 8 -3.59961 8 -8v-16c0 -4.40039 -3.59961 -8 -8 -8h-336c-4.40039 0 -8 3.59961 -8 8v16c0 4.40039 3.59961 8 8 8h336zM152 -32c4.40039 0 8 -3.59961 8 -8v-16c0 -4.40039 -3.59961 -8 -8 -8h-144c-4.40039 0 -8 3.59961 -8 8v16c0 4.40039 3.59961 8 8 8h144z
" />
    <glyph glyph-name="smoke" unicode="&#xf760;" horiz-adv-x="640" 
d="M640 208c0 -28.7002 -9.09961 -54.9004 -23.7002 -77.2998c14.7002 -20.2002 23.7002 -45 23.7002 -71.9004c0 -67.7002 -55.0996 -122.8 -122.8 -122.8h-361.5c-85.9004 0 -155.7 69.7998 -155.7 155.7c0 42.3994 17.0996 80.7998 44.7002 108.899
c-27.4004 26.1006 -44.7002 62.6006 -44.7002 103.4c0 79.4004 64.5996 144 144 144c39.5996 0 76.7998 -16.2998 104.1 -45.2002c19.3008 8.7002 39.4004 13.2002 59.9004 13.2002c55.7998 0 104.2 -31.2998 129.4 -77c18.2998 8.2998 38.0996 13 58.5996 13
c79.4004 0 144 -64.5996 144 -144zM608 208c0 61.7998 -50.2002 112 -112.1 112.2c-33.4004 0 -64.9004 -15.2002 -86.5 -41.7002l-8.60059 -10.5l-11.7998 6.7002c-15.7002 9 -32.2002 13.5 -49.2002 13.5c-44.3994 0 -81.7998 -29.2998 -94.7002 -69.5
c10 -7.10059 19.2002 -15.2998 27.4004 -24.6006c21.9004 13.4004 46.5 20.5 72 20.5c42.4004 0 81.5996 -19.0996 107.9 -51.6992c19.5996 12.2998 41.5996 18.7998 64.6992 18.7998c29.1006 0 55.5 -10.6006 76.5 -27.5c9 15.8994 14.4004 34.2002 14.4004 53.7998z
M32 304c0 -33 14.5 -62.5 37.2998 -83c24.7002 16.5996 54.4004 26.2998 86.4004 26.2998c21.3994 0 42.2998 -4.59961 61.5 -13c18.7998 49.7998 66.3994 85.6006 122.8 85.6006c18.4004 0 36.2998 -4 53.4004 -11.8008c5.09961 5.30078 10.7998 9.60059 16.5 14
c-19.4004 36.7002 -57.6006 61.8008 -101.9 61.8008c-19.2002 0 -38.0996 -5.10059 -56.0996 -15.1006l-11.9004 -6.59961l-8.40039 10.7002c-21.5996 27.3994 -53.5 43.0996 -87.5996 43.0996c-61.7998 0 -112 -50.2002 -112 -112zM517.2 -32
c50 0 90.8994 40.9004 90.8994 91s-40.6992 90.7998 -90.7998 90.7998c-21.0996 0 -41.2002 -7.5 -58 -21.5996l-14.0996 -11.7998l-9.7998 15.5996c-19.9004 31.7002 -53.8008 50.5996 -90.7002 50.5996c-23.5 0 -46.1006 -7.89941 -65.4004 -22.8994l-13.2002 -10.2002
l-9.69922 13.5996c-23.2002 32.7002 -60.9004 52.3008 -100.7 52.3008c-68.2002 0 -123.7 -55.5 -123.7 -123.7s55.5 -123.7 123.7 -123.7h361.5z" />
    <glyph glyph-name="snow-blowing" unicode="&#xf761;" horiz-adv-x="640" 
d="M351 332.2c2.09961 -3.60059 0.799805 -8.2002 -2.90039 -10.2998l-40.5996 -23.5l29.9004 -8c4.09961 -1.10059 6.5 -5.2002 5.39941 -9.30078l-3.89941 -14.6992c-1.10059 -4.10059 -5.2002 -6.5 -9.30078 -5.40039l-59.2998 15.9004l-63.8994 -36.9004l64 -36.9004
l59.2998 15.9004c4 1.09961 8.2002 -1.2998 9.2998 -5.40039l3.90039 -14.6992c1.09961 -4 -1.30078 -8.2002 -5.40039 -9.30078l-29.9004 -8l40.6006 -23.5c3.7002 -2.09961 4.89941 -6.7998 2.7998 -10.3994l-7.59961 -13.2002
c-2.10059 -3.7002 -6.80078 -4.90039 -10.4004 -2.7998l-40.5996 23.5l8 -29.9004c1.09961 -4 -1.30078 -8.2002 -5.40039 -9.2998l-14.7002 -3.90039c-4 -1.09961 -8.2002 1.30078 -9.2998 5.40039l-15.9004 59.2998l-63.0996 36.4004v-78.6006l45.5 -45.5996
c3.09961 -3.09961 3.09961 -8.2002 0 -11.2998l-11.2998 -11.2998c-3.10059 -3.10059 -8.2002 -3.10059 -11.2998 0l-23 23v-49.4004c0 -4.40039 -3.60059 -8 -8 -8h-16c-4.40039 0 -8 3.59961 -8 8v49.4004l-23 -23c-3.10059 -3.10059 -8.2002 -3.10059 -11.3008 0
l-11.2998 11.2998c-3.09961 3.09961 -3.09961 8.2002 0 11.2998l45.7002 45.5996v78.6006l-63.0996 -36.4004l-15.9004 -59.2998c-1.09961 -4.09961 -5.2002 -6.5 -9.2998 -5.40039l-14.7002 3.90039c-4.09961 1.09961 -6.5 5.2002 -5.40039 9.2998l8 29.9004
l-40.5996 -23.5c-3.7002 -2.10059 -8.2998 -0.799805 -10.4004 2.7998l-7.59961 13.2002c-2.09961 3.7002 -0.799805 8.2998 2.7998 10.3994l40.7002 23.5l-29.9004 8c-4.09961 1.10059 -6.5 5.2002 -5.39941 9.30078l3.89941 14.6992
c1.10059 4.10059 5.2002 6.5 9.30078 5.40039l59.1992 -16l63.9004 36.9004l-63.9004 36.8994l-59.2998 -15.8994c-4 -1.10059 -8.2002 1.2998 -9.2998 5.39941l-3.90039 14.7002c-1.09961 4 1.30078 8.2002 5.40039 9.2998l29.9004 8l-40.6006 23.5
c-3.7002 2.10059 -4.89941 6.7998 -2.7998 10.4004l7.59961 13.2002c2.10059 3.69922 6.80078 4.89941 10.4004 2.7998l40.5996 -23.5l-8 29.8994c-1.09961 4 1.30078 8.2002 5.40039 9.30078l14.7002 4c4 1.09961 8.2002 -1.30078 9.2998 -5.40039l16.0996 -59.4004
l63.1006 -36.3994v78.5996l-45.7002 45.7002c-3.09961 3.09961 -3.09961 8.2002 0 11.2998l11.2998 11.2998c3.10059 3.10059 8.2002 3.10059 11.2998 0l23 -23v49.4004c0 4.40039 3.60059 8 8 8h16c4.40039 0 8 -3.59961 8 -8v-49.4004l23 23
c3.10059 3.10059 8.2002 3.10059 11.3008 0l11.2998 -11.2998c3.09961 -3.09961 3.09961 -8.2002 0 -11.2998l-45.7002 -45.5996v-78.6006l63.0996 36.2998l15.9004 59.3008c1.09961 4.09961 5.2002 6.5 9.2998 5.39941l14.7002 -3.89941
c4.09961 -1.10059 6.5 -5.2002 5.40039 -9.30078l-8 -29.8994l40.5996 23.5c3.7002 2.09961 8.2998 0.799805 10.4004 -2.7998zM392 160c-4.40039 0 -8 3.59961 -8 8v16c0 4.40039 3.59961 8 8 8h152c40.2002 0 71.9004 37.2998 62.2998 79.0996
c-5.39941 23.1006 -24.0996 41.9004 -47.2002 47.2002c-39.1992 9 -74.5 -18.2002 -78.6992 -54.7998c-0.5 -4.09961 -3.7002 -7.40039 -7.90039 -7.40039h-16.2002c-4.5 0 -8.39941 3.80078 -8 8.40039c4.7998 55.5996 57.2002 97.7002 116.3 85.4004
c36.3008 -7.60059 65.6006 -36.9004 73.2002 -73.2002c13 -62.1006 -34 -116.7 -93.7998 -116.7h-152zM539.7 128c52.5 0 98.3994 -40.5 99.8994 -93.2002c1.60059 -54.2998 -42 -98.8994 -96 -98.8994c-50.0996 0 -91.2998 38.5 -95.5996 87.5996
c-0.400391 4.5 3.40039 8.40039 8 8.40039h16.0996c4.2002 0 7.40039 -3.2002 7.90039 -7.40039c3.7002 -31.7002 30.7998 -56.5 63.5996 -56.5c37.4004 0 67.4004 32.2998 63.7002 70.4004c-3.2002 33.1992 -33.0996 57.5996 -66.5 57.5996h-164.8
c-4.40039 0 -8 3.59961 -8 8v16c0 4.40039 3.59961 8 8 8h163.7z" />
    <glyph glyph-name="sun-cloud" unicode="&#xf763;" horiz-adv-x="640" 
d="M558.2 262.4c45.2002 -0.800781 81.7998 -37.8008 81.7998 -83.2002c0 -45.9004 -37.2998 -83.2002 -83.2002 -83.2002h-153.6c-45.9004 0 -83.2002 37.2998 -83.2002 83.2002c0 36.2002 23 66.8994 55.5 78.2998c14.9004 37.2998 50.7998 62.5 92.5 62.5
c39.4004 0 74.0996 -23.5 90.2002 -57.5996zM556.8 128c28.2998 0 51.2002 22.9004 51.2002 51.2002s-22.9004 51.2002 -51.2002 51.2002c-7.7002 0 -14.7998 -2.2002 -21.2998 -5.30078c-2.7002 35.1006 -31.7002 62.9004 -67.5 62.9004
c-34.0996 0 -62.0996 -25.0996 -67 -57.7998c-27.2002 -1.2002 -49 -23.5 -49 -51c0 -28.2998 22.9004 -51.2002 51.2002 -51.2002h153.6zM403.2 64h30.5l7.59961 -38.5996c1 -5.2002 -0.599609 -10.6006 -4.39941 -14.4004c-3.7002 -3.7998 -9 -5.5 -14.4004 -4.40039
l-97.7998 19.4004l-55.4004 -82.9004c-3 -4.39941 -8 -7.09961 -13.2998 -7.09961s-10.2998 2.7002 -13.2998 7.09961l-55.5 82.9004l-97.7998 -19.4004c-5.30078 -1 -10.6006 0.600586 -14.4004 4.40039c-3.7998 3.7002 -5.40039 9.2002 -4.40039 14.4004l19.4004 97.7998
l-82.9004 55.5c-4.39941 3 -7.09961 7.89941 -7.09961 13.2998s2.7002 10.2998 7.09961 13.2998l82.9004 55.5l-19.4004 97.7998c-1 5.2002 0.600586 10.6006 4.40039 14.4004s9.09961 5.5 14.4004 4.40039l97.7998 -19.4004l55.5 82.9004
c3 4.39941 8 7.09961 13.2998 7.09961s10.2998 -2.7002 13.2998 -7.09961l55.5 -82.9004l97.7998 19.4004c8.7002 1.7998 17.1006 -3.90039 18.8008 -12.6006c1.69922 -8.7002 -3.90039 -17.0996 -12.6006 -18.7998l-108.3 -21.5c-6.5 -1.2998 -12.7998 1.5 -16.4004 6.7998
l-48.0996 71.9004l-48.0996 -71.9004c-3.60059 -5.2998 -9.90039 -8.09961 -16.4004 -6.7998l-84.7998 16.7998l16.7998 -84.7998c1.2002 -6.2998 -1.40039 -12.7998 -6.7998 -16.4004l-71.9004 -48.0996l71.9004 -48.0996c5.39941 -3.60059 8 -10.1006 6.7998 -16.4004
l-16.7998 -84.7998l84.7998 16.7998c6.5 1.2998 12.7998 -1.5 16.4004 -6.7998l48.0996 -71.9004l48.2002 71.7998c3.59961 5.40039 9.7998 8.10059 16.3994 6.80078l84.8008 -16.8008l-4.30078 21.6006c0.700195 0 1.40039 -0.200195 2.10059 -0.200195zM256 268.3
c-42.0996 0 -76.2998 -34.2002 -76.2998 -76.2998s34.2002 -76.2998 76.2998 -76.2998c16.2998 0 31.2998 5.2002 43.7002 13.8994c4.7002 -9.69922 10.7002 -18.5996 17.7998 -26.5996c-17.5 -12.0996 -38.7002 -19.2998 -61.5 -19.2998
c-59.7002 0 -108.3 48.5 -108.3 108.2c0 59.6992 48.5996 108.3 108.3 108.3c29.5 0 56.2998 -11.9004 75.7998 -31.1006c-8.39941 -6.69922 -15.7998 -14.3994 -22 -23.0996c-13.7998 13.7998 -32.7998 22.2998 -53.7998 22.2998z" />
    <glyph glyph-name="sun-dust" unicode="&#xf764;" 
d="M123.5 256.5c1.2002 -6.2998 -1.2998 -12.7998 -6.7998 -16.4004l-71.9004 -48.0996l71.9004 -48.0996c5.59961 -3.80078 8.2998 -10.6006 6.59961 -17.2002l-21.5 -85.7002c-0.700195 -2.90039 -2.2002 -5.40039 -4.2002 -7.40039
c-3.7998 -3.7998 -9.5 -5.59961 -15.1992 -4.19922c-8.60059 2.09961 -13.8008 10.7998 -11.6006 19.3994l18.7002 74.7998l-82.4004 55.1006c-4.39941 3 -7.09961 8 -7.09961 13.2998c0 5.40039 2.59961 10.2998 7.09961 13.2998l82.9004 55.4004l-19.2998 97.7998
v0.0996094c-0.200195 1 0 2.10059 0 3.10059s-0.200195 2 0 3.09961c0.399414 2.10059 1.2002 4.10059 2.39941 5.7998c0.900391 1.2002 2 2.2002 3.10059 3.10059c0.5 0.399414 0.799805 1 1.2998 1.2998c1.7002 1.09961 3.7002 2 5.7998 2.40039
c1.10059 0.199219 2.10059 0 3.2002 0c1 0 2 0.199219 3 0h0.0996094l97.7002 -19.4004l55.4004 82.9004c3 4.59961 8 7.09961 13.2998 7.09961c5.40039 0 10.2998 -2.7002 13.2998 -7.09961l55.1006 -82.4004l74.7998 18.7002c8.59961 2.2002 17.2998 -3 19.3994 -11.6006
c1.40039 -5.69922 -0.399414 -11.3994 -4.19922 -15.1992c-2 -2 -4.5 -3.5 -7.40039 -4.2002l-85.7002 -21.5c-6.59961 -1.7002 -13.3994 1 -17.2002 6.59961l-48.0996 71.9004l-48.0996 -71.9004c-3.7002 -5.59961 -10 -8 -16.4004 -6.7998l-84.7998 16.7998zM306.9 253.7
c-31.3008 25.8994 -78.1006 24.2998 -107.5 -5.10059c-29.4004 -29.3994 -31.1006 -76.0996 -5.10059 -107.5c2.7002 -3.2998 2.7002 -8 -0.299805 -11l-11.2998 -11.2998c-3.2002 -3.2998 -8.60059 -3.2998 -11.6006 0.200195c-37.8994 43.9004 -36 110.5 5.7002 152.2
c41.6006 41.7002 108.3 43.5996 152.2 5.7002c3.40039 -3 3.40039 -8.40039 0.200195 -11.6006l-11.2998 -11.2998c-3 -3.09961 -7.7002 -3 -11 -0.299805zM490.7 -21.2998c11.7002 0 21.2998 -9.60059 21.2998 -21.2998c0 -11.7002 -9.5 -21.3008 -21.2998 -21.3008
s-21.2998 9.5 -21.2998 21.3008c0 11.6992 9.5 21.2998 21.2998 21.2998zM490.7 149.3c11.7002 0 21.2998 -9.5 21.2998 -21.2998c0 -11.7002 -9.5 -21.2998 -21.2998 -21.2998s-21.2998 9.5 -21.2998 21.2998c0 11.7002 9.5 21.2998 21.2998 21.2998zM490.7 277.3
c-11.7998 0 -21.4004 9.60059 -21.2998 21.2998c0 11.7002 9.5 21.3008 21.2998 21.3008c11.7002 0 21.2998 -9.5 21.2998 -21.3008c0 -11.6992 -9.5 -21.2998 -21.2998 -21.2998zM149.3 -21.2998c11.7998 0 21.4004 -9.60059 21.2998 -21.2998
c0 -11.7002 -9.5 -21.3008 -21.2998 -21.3008c-11.7002 0 -21.2998 9.5 -21.2998 21.3008c0 11.6992 9.5 21.2998 21.2998 21.2998zM234.7 64c11.7002 0 21.2998 -9.59961 21.2998 -21.2998s-9.5 -21.2998 -21.2998 -21.2998s-21.2998 9.5 -21.2998 21.2998
c0 11.7002 9.5 21.2998 21.2998 21.2998zM320 149.3c11.7998 0 21.2998 -9.5 21.2998 -21.2998c0 -11.7002 -9.59961 -21.2998 -21.2998 -21.2998s-21.2998 9.5 -21.2998 21.2998c0 11.7002 9.5 21.2998 21.2998 21.2998zM405.3 234.7
c11.7998 0 21.4004 -9.60059 21.2998 -21.2998c0 -11.7002 -9.5 -21.3008 -21.2998 -21.3008c-11.7002 0 -21.2998 9.5 -21.2998 21.3008c0 11.6992 9.5 21.2998 21.2998 21.2998zM320 -21.2998c11.7998 0 21.2998 -9.60059 21.2998 -21.2998
c0 -11.7002 -9.59961 -21.3008 -21.2998 -21.3008s-21.2998 9.5 -21.2998 21.3008c0 11.6992 9.5 21.2998 21.2998 21.2998zM405.3 64c11.7998 0 21.4004 -9.59961 21.2998 -21.2998c0 -11.7002 -9.5 -21.2998 -21.2998 -21.2998c-11.7002 0 -21.2998 9.5 -21.2998 21.2998
c0 11.7002 9.5 21.2998 21.2998 21.2998z" />
    <glyph glyph-name="sun-haze" unicode="&#xf765;" horiz-adv-x="640" 
d="M216 -32c4.40039 0 8 -3.59961 8 -8v-16c0 -4.40039 -3.59961 -8 -8 -8h-144c-4.40039 0 -8 3.59961 -8 8v16c0 4.40039 3.59961 8 8 8h144zM632 -32c4.40039 0 8 -3.59961 8 -8v-16c0 -4.40039 -3.59961 -8 -8 -8h-336c-4.40039 0 -8 3.59961 -8 8v16
c0 4.40039 3.59961 8 8 8h336zM576 24c0 -4.40039 -3.59961 -8 -8 -8h-560c-4.40039 0 -8 3.59961 -8 8v16c0 4.40039 3.59961 8 8 8h560c4.40039 0 8 -3.59961 8 -8v-16zM632 128.1c4.40039 0 8 -3.59961 8 -8v-16c0 -4.39941 -3.59961 -8 -8 -8h-144
c-4.40039 0 -8 3.60059 -8 8v16c0 4.40039 3.59961 8 8 8h144zM72 96c-4.40039 0 -8 3.59961 -8 8v16c0 4.40039 3.59961 8 8 8h336c4.40039 0 8 -3.59961 8 -8v-16c0 -4.40039 -3.59961 -8 -8 -8h-336zM208.3 200.5c4.2998 57.7998 52.7998 103.6 111.7 103.6
s107.4 -45.6992 111.7 -103.6c0.299805 -4.59961 -3.5 -8.40039 -8.10059 -8.40039h-16c-4.2998 0 -7.59961 3.40039 -8 7.60059c-3.7998 40.5996 -38.0996 72.3994 -79.5996 72.3994s-75.7998 -31.7998 -79.5996 -72.3994c-0.400391 -4.2002 -3.7002 -7.60059 -8 -7.60059
h-16c-4.60059 0 -8.40039 3.90039 -8.10059 8.40039zM96 192.1c-5.40039 0 -10.7002 2.7002 -13.5996 7.80078c-4.60059 7.5 -2.10059 17.3994 5.5 21.8994l66.0996 39.6006l-19.2998 97.2998c-1 5.2002 0.599609 10.5996 4.39941 14.3994
c3.80078 3.80078 9.10059 5.5 14.4004 4.40039l97.7998 -19.4004l55.4004 82.8008l0.0996094 0.0996094c0.600586 0.900391 1.5 1.5 2.2002 2.2002s1.2998 1.59961 2.2002 2.2002c1.7998 1.19922 3.7998 2 5.7998 2.39941c1.40039 0.299805 2.90039 0.100586 4.2998 0
c0.600586 0 1.2002 0.100586 1.7998 0c2 -0.399414 4 -1.2002 5.80078 -2.39941c1 -0.600586 1.5 -1.5 2.2998 -2.30078c0.700195 -0.699219 1.5 -1.19922 2.09961 -2.09961l0.100586 -0.0996094l55.3994 -82.9004l97.7998 19.4004
c5.30078 1.09961 10.6006 -0.600586 14.4004 -4.40039s5.40039 -9.2002 4.40039 -14.4004l-19.3008 -97.2998l66.1006 -39.5996c7.59961 -4.5 10.0996 -14.2998 5.5 -21.9004c-3 -5 -8.2998 -7.7998 -13.7002 -7.7998c-2.7998 0 -5.59961 0.799805 -8.2002 2.2998
l-75.7998 45.4004c-5.7998 3.39941 -8.7998 10.2002 -7.5 16.7998l16.7998 84.9004l-84.7998 -16.8008c-6.5 -1.2998 -12.7998 1.40039 -16.4004 6.80078l-48.0996 71.8994l-48.0996 -71.7998c-3.60059 -5.40039 -9.90039 -8.09961 -16.4004 -6.7998l-84.7998 16.7998
l16.7998 -84.9004c1.2998 -6.59961 -1.7002 -13.2998 -7.5 -16.7998l-75.7998 -45.3994c-2.5 -1.60059 -5.40039 -2.30078 -8.2002 -2.30078z" />
    </font>
</defs>
</svg>
